fate: update after 5f6c21117f23a3c825777cdb0565a21c5a468d35
authorMichael Niedermayer <michaelni@gmx.at>
Sun, 15 Dec 2013 11:21:49 +0000 (12:21 +0100)
committerMichael Niedermayer <michaelni@gmx.at>
Sun, 15 Dec 2013 11:22:07 +0000 (12:22 +0100)
Signed-off-by: Michael Niedermayer <michaelni@gmx.at>
tests/ref/fate/exif-image-embedded
tests/ref/fate/exif-image-jpg
tests/ref/fate/exif-image-tiff

index 4109c15..d0fad03 100644 (file)
@@ -5,6 +5,8 @@ pkt_pts=N/A
 pkt_pts_time=N/A
 pkt_dts=N/A
 pkt_dts_time=N/A
+best_effort_timestamp=N/A
+best_effort_timestamp_time=N/A
 pkt_duration=N/A
 pkt_duration_time=N/A
 pkt_pos=N/A
@@ -29,6 +31,8 @@ pkt_pts=353600
 pkt_pts_time=0.025057
 pkt_dts=353600
 pkt_dts_time=0.025057
+best_effort_timestamp=0
+best_effort_timestamp_time=0.000000
 pkt_duration=15040
 pkt_duration_time=0.001066
 pkt_pos=16292
@@ -45,6 +49,8 @@ pkt_pts=368640
 pkt_pts_time=0.026122
 pkt_dts=368640
 pkt_dts_time=0.026122
+best_effort_timestamp=368640
+best_effort_timestamp_time=0.026122
 pkt_duration=368640
 pkt_duration_time=0.026122
 pkt_pos=16709
@@ -61,6 +67,8 @@ pkt_pts=737280
 pkt_pts_time=0.052245
 pkt_dts=737280
 pkt_dts_time=0.052245
+best_effort_timestamp=737280
+best_effort_timestamp_time=0.052245
 pkt_duration=368640
 pkt_duration_time=0.026122
 pkt_pos=17127
@@ -77,6 +85,8 @@ pkt_pts=1105920
 pkt_pts_time=0.078367
 pkt_dts=1105920
 pkt_dts_time=0.078367
+best_effort_timestamp=1105920
+best_effort_timestamp_time=0.078367
 pkt_duration=368640
 pkt_duration_time=0.026122
 pkt_pos=17545
@@ -93,6 +103,8 @@ pkt_pts=1474560
 pkt_pts_time=0.104490
 pkt_dts=1474560
 pkt_dts_time=0.104490
+best_effort_timestamp=1474560
+best_effort_timestamp_time=0.104490
 pkt_duration=368640
 pkt_duration_time=0.026122
 pkt_pos=17963
@@ -109,6 +121,8 @@ pkt_pts=1843200
 pkt_pts_time=0.130612
 pkt_dts=1843200
 pkt_dts_time=0.130612
+best_effort_timestamp=1843200
+best_effort_timestamp_time=0.130612
 pkt_duration=368640
 pkt_duration_time=0.026122
 pkt_pos=18381
@@ -125,6 +139,8 @@ pkt_pts=2211840
 pkt_pts_time=0.156735
 pkt_dts=2211840
 pkt_dts_time=0.156735
+best_effort_timestamp=2211840
+best_effort_timestamp_time=0.156735
 pkt_duration=368640
 pkt_duration_time=0.026122
 pkt_pos=18799
@@ -141,6 +157,8 @@ pkt_pts=2580480
 pkt_pts_time=0.182857
 pkt_dts=2580480
 pkt_dts_time=0.182857
+best_effort_timestamp=2580480
+best_effort_timestamp_time=0.182857
 pkt_duration=368640
 pkt_duration_time=0.026122
 pkt_pos=19217
@@ -157,6 +175,8 @@ pkt_pts=2949120
 pkt_pts_time=0.208980
 pkt_dts=2949120
 pkt_dts_time=0.208980
+best_effort_timestamp=2949120
+best_effort_timestamp_time=0.208980
 pkt_duration=368640
 pkt_duration_time=0.026122
 pkt_pos=19635
@@ -173,6 +193,8 @@ pkt_pts=3317760
 pkt_pts_time=0.235102
 pkt_dts=3317760
 pkt_dts_time=0.235102
+best_effort_timestamp=3317760
+best_effort_timestamp_time=0.235102
 pkt_duration=368640
 pkt_duration_time=0.026122
 pkt_pos=20053
@@ -189,6 +211,8 @@ pkt_pts=3686400
 pkt_pts_time=0.261224
 pkt_dts=3686400
 pkt_dts_time=0.261224
+best_effort_timestamp=3686400
+best_effort_timestamp_time=0.261224
 pkt_duration=368640
 pkt_duration_time=0.026122
 pkt_pos=20471
@@ -205,6 +229,8 @@ pkt_pts=4055040
 pkt_pts_time=0.287347
 pkt_dts=4055040
 pkt_dts_time=0.287347
+best_effort_timestamp=4055040
+best_effort_timestamp_time=0.287347
 pkt_duration=368640
 pkt_duration_time=0.026122
 pkt_pos=20889
@@ -221,6 +247,8 @@ pkt_pts=4423680
 pkt_pts_time=0.313469
 pkt_dts=4423680
 pkt_dts_time=0.313469
+best_effort_timestamp=4423680
+best_effort_timestamp_time=0.313469
 pkt_duration=368640
 pkt_duration_time=0.026122
 pkt_pos=21307
@@ -237,6 +265,8 @@ pkt_pts=4792320
 pkt_pts_time=0.339592
 pkt_dts=4792320
 pkt_dts_time=0.339592
+best_effort_timestamp=4792320
+best_effort_timestamp_time=0.339592
 pkt_duration=368640
 pkt_duration_time=0.026122
 pkt_pos=21725
@@ -253,6 +283,8 @@ pkt_pts=5160960
 pkt_pts_time=0.365714
 pkt_dts=5160960
 pkt_dts_time=0.365714
+best_effort_timestamp=5160960
+best_effort_timestamp_time=0.365714
 pkt_duration=368640
 pkt_duration_time=0.026122
 pkt_pos=22143
@@ -269,6 +301,8 @@ pkt_pts=5529600
 pkt_pts_time=0.391837
 pkt_dts=5529600
 pkt_dts_time=0.391837
+best_effort_timestamp=5529600
+best_effort_timestamp_time=0.391837
 pkt_duration=368640
 pkt_duration_time=0.026122
 pkt_pos=22561
@@ -285,6 +319,8 @@ pkt_pts=5898240
 pkt_pts_time=0.417959
 pkt_dts=5898240
 pkt_dts_time=0.417959
+best_effort_timestamp=5898240
+best_effort_timestamp_time=0.417959
 pkt_duration=368640
 pkt_duration_time=0.026122
 pkt_pos=22979
@@ -301,6 +337,8 @@ pkt_pts=6266880
 pkt_pts_time=0.444082
 pkt_dts=6266880
 pkt_dts_time=0.444082
+best_effort_timestamp=6266880
+best_effort_timestamp_time=0.444082
 pkt_duration=368640
 pkt_duration_time=0.026122
 pkt_pos=23397
@@ -317,6 +355,8 @@ pkt_pts=6635520
 pkt_pts_time=0.470204
 pkt_dts=6635520
 pkt_dts_time=0.470204
+best_effort_timestamp=6635520
+best_effort_timestamp_time=0.470204
 pkt_duration=368640
 pkt_duration_time=0.026122
 pkt_pos=23815
@@ -333,6 +373,8 @@ pkt_pts=7004160
 pkt_pts_time=0.496327
 pkt_dts=7004160
 pkt_dts_time=0.496327
+best_effort_timestamp=7004160
+best_effort_timestamp_time=0.496327
 pkt_duration=368640
 pkt_duration_time=0.026122
 pkt_pos=24233
@@ -349,6 +391,8 @@ pkt_pts=7372800
 pkt_pts_time=0.522449
 pkt_dts=7372800
 pkt_dts_time=0.522449
+best_effort_timestamp=7372800
+best_effort_timestamp_time=0.522449
 pkt_duration=368640
 pkt_duration_time=0.026122
 pkt_pos=24651
index b579442..7b303cd 100644 (file)
@@ -5,6 +5,8 @@ pkt_pts=0
 pkt_pts_time=0.000000
 pkt_dts=0
 pkt_dts_time=0.000000
+best_effort_timestamp=0
+best_effort_timestamp_time=0.000000
 pkt_duration=1
 pkt_duration_time=0.040000
 pkt_pos=N/A
index 16c06c2..6ccc48e 100644 (file)
@@ -5,6 +5,8 @@ pkt_pts=0
 pkt_pts_time=0.000000
 pkt_dts=0
 pkt_dts_time=0.000000
+best_effort_timestamp=0
+best_effort_timestamp_time=0.000000
 pkt_duration=1
 pkt_duration_time=0.040000
 pkt_pos=N/A