1c4c349bff364727ad8c8a9e26ccea5f2fe7e022
[ffmpeg.git] / tests / ref / fate / h264-dts_5frames
1 [FRAME]
2 media_type=video
3 stream_index=0
4 key_frame=1
5 pkt_pts=0
6 pkt_pts_time=0.000000
7 pkt_dts=0
8 pkt_dts_time=0.000000
9 best_effort_timestamp=0
10 best_effort_timestamp_time=0.000000
11 pkt_duration=166
12 pkt_duration_time=0.166000
13 pkt_pos=651
14 pkt_size=14428
15 width=512
16 height=256
17 pix_fmt=yuv420p
18 sample_aspect_ratio=1:1
19 pict_type=I
20 coded_picture_number=0
21 display_picture_number=0
22 interlaced_frame=0
23 top_field_first=0
24 repeat_pict=0
25 [/FRAME]
26 [FRAME]
27 media_type=video
28 stream_index=0
29 key_frame=0
30 pkt_pts=167
31 pkt_pts_time=0.167000
32 pkt_dts=167
33 pkt_dts_time=0.167000
34 best_effort_timestamp=167
35 best_effort_timestamp_time=0.167000
36 pkt_duration=166
37 pkt_duration_time=0.166000
38 pkt_pos=15085
39 pkt_size=11
40 width=512
41 height=256
42 pix_fmt=yuv420p
43 sample_aspect_ratio=1:1
44 pict_type=P
45 coded_picture_number=1
46 display_picture_number=0
47 interlaced_frame=0
48 top_field_first=0
49 repeat_pict=0
50 [/FRAME]
51 [FRAME]
52 media_type=video
53 stream_index=0
54 key_frame=0
55 pkt_pts=333
56 pkt_pts_time=0.333000
57 pkt_dts=333
58 pkt_dts_time=0.333000
59 best_effort_timestamp=333
60 best_effort_timestamp_time=0.333000
61 pkt_duration=166
62 pkt_duration_time=0.166000
63 pkt_pos=15102
64 pkt_size=11
65 width=512
66 height=256
67 pix_fmt=yuv420p
68 sample_aspect_ratio=1:1
69 pict_type=P
70 coded_picture_number=2
71 display_picture_number=0
72 interlaced_frame=0
73 top_field_first=0
74 repeat_pict=0
75 [/FRAME]
76 [FRAME]
77 media_type=video
78 stream_index=0
79 key_frame=0
80 pkt_pts=500
81 pkt_pts_time=0.500000
82 pkt_dts=500
83 pkt_dts_time=0.500000
84 best_effort_timestamp=500
85 best_effort_timestamp_time=0.500000
86 pkt_duration=166
87 pkt_duration_time=0.166000
88 pkt_pos=15119
89 pkt_size=11
90 width=512
91 height=256
92 pix_fmt=yuv420p
93 sample_aspect_ratio=1:1
94 pict_type=P
95 coded_picture_number=3
96 display_picture_number=0
97 interlaced_frame=0
98 top_field_first=0
99 repeat_pict=0
100 [/FRAME]
101 [FRAME]
102 media_type=video
103 stream_index=0
104 key_frame=0
105 pkt_pts=667
106 pkt_pts_time=0.667000
107 pkt_dts=667
108 pkt_dts_time=0.667000
109 best_effort_timestamp=667
110 best_effort_timestamp_time=0.667000
111 pkt_duration=166
112 pkt_duration_time=0.166000
113 pkt_pos=15136
114 pkt_size=11
115 width=512
116 height=256
117 pix_fmt=yuv420p
118 sample_aspect_ratio=1:1
119 pict_type=P
120 coded_picture_number=4
121 display_picture_number=0
122 interlaced_frame=0
123 top_field_first=0
124 repeat_pict=0
125 [/FRAME]