fate: add tests for psnr and ssim filter
[ffmpeg.git] / tests / ref / fate / filter-refcmp-ssim-yuv
1 frame:0    pts:0       pts_time:0
2 lavfi.ssim.Y=0.80
3 lavfi.ssim.U=0.76
4 lavfi.ssim.V=0.69
5 lavfi.ssim.All=0.76
6 lavfi.ssim.dB=6.25
7 frame:1    pts:1       pts_time:1
8 lavfi.ssim.Y=0.80
9 lavfi.ssim.U=0.73
10 lavfi.ssim.V=0.68
11 lavfi.ssim.All=0.75
12 lavfi.ssim.dB=6.08
13 frame:2    pts:2       pts_time:2
14 lavfi.ssim.Y=0.80
15 lavfi.ssim.U=0.73
16 lavfi.ssim.V=0.68
17 lavfi.ssim.All=0.75
18 lavfi.ssim.dB=6.10
19 frame:3    pts:3       pts_time:3
20 lavfi.ssim.Y=0.79
21 lavfi.ssim.U=0.72
22 lavfi.ssim.V=0.68
23 lavfi.ssim.All=0.75
24 lavfi.ssim.dB=5.94
25 frame:4    pts:4       pts_time:4
26 lavfi.ssim.Y=0.80
27 lavfi.ssim.U=0.72
28 lavfi.ssim.V=0.68
29 lavfi.ssim.All=0.75
30 lavfi.ssim.dB=5.97