fate: add tests for psnr and ssim filter
[ffmpeg.git] / tests / ref / fate / filter-refcmp-psnr-yuv
1 frame:0    pts:0       pts_time:0
2 lavfi.psnr.mse.y=222.06
3 lavfi.psnr.psnr.y=24.67
4 lavfi.psnr.mse.u=339.38
5 lavfi.psnr.psnr.u=22.82
6 lavfi.psnr.mse.v=705.41
7 lavfi.psnr.psnr.v=19.65
8 lavfi.psnr.mse_avg=372.23
9 lavfi.psnr.psnr_avg=22.42
10 frame:1    pts:1       pts_time:1
11 lavfi.psnr.mse.y=236.74
12 lavfi.psnr.psnr.y=24.39
13 lavfi.psnr.mse.u=416.17
14 lavfi.psnr.psnr.u=21.94
15 lavfi.psnr.mse.v=704.98
16 lavfi.psnr.psnr.v=19.65
17 lavfi.psnr.mse_avg=398.66
18 lavfi.psnr.psnr_avg=22.12
19 frame:2    pts:2       pts_time:2
20 lavfi.psnr.mse.y=234.79
21 lavfi.psnr.psnr.y=24.42
22 lavfi.psnr.mse.u=435.72
23 lavfi.psnr.psnr.u=21.74
24 lavfi.psnr.mse.v=699.60
25 lavfi.psnr.psnr.v=19.68
26 lavfi.psnr.mse_avg=401.23
27 lavfi.psnr.psnr_avg=22.10
28 frame:3    pts:3       pts_time:3
29 lavfi.psnr.mse.y=250.88
30 lavfi.psnr.psnr.y=24.14
31 lavfi.psnr.mse.u=479.73
32 lavfi.psnr.psnr.u=21.32
33 lavfi.psnr.mse.v=707.55
34 lavfi.psnr.psnr.v=19.63
35 lavfi.psnr.mse_avg=422.26
36 lavfi.psnr.psnr_avg=21.88
37 frame:4    pts:4       pts_time:4
38 lavfi.psnr.mse.y=241.05
39 lavfi.psnr.psnr.y=24.31
40 lavfi.psnr.mse.u=505.04
41 lavfi.psnr.psnr.u=21.10
42 lavfi.psnr.mse.v=716.00
43 lavfi.psnr.psnr.v=19.58
44 lavfi.psnr.mse_avg=425.79
45 lavfi.psnr.psnr_avg=21.84