fate/ffprobe: add some stream metadata.
[ffmpeg.git] / tests / ref / fate / ffprobe_ini
1 # ffprobe output
2
3 [packets_and_frames.packet.0]
4 codec_type=audio
5 stream_index=0
6 pts=0
7 pts_time=0.000000
8 dts=0
9 dts_time=0.000000
10 duration=1024
11 duration_time=0.023220
12 convergence_duration=N/A
13 convergence_duration_time=N/A
14 size=2048
15 pos=572
16 flags=K
17
18 [packets_and_frames.frame.0]
19 media_type=audio
20 key_frame=1
21 pkt_pts=0
22 pkt_pts_time=0.000000
23 pkt_dts=0
24 pkt_dts_time=0.000000
25 pkt_duration=1024
26 pkt_duration_time=0.023220
27 pkt_pos=572
28 sample_fmt=s16
29 nb_samples=1024
30 channels=1
31 channel_layout=unknown
32
33 [packets_and_frames.packet.1]
34 codec_type=video
35 stream_index=1
36 pts=0
37 pts_time=0.000000
38 dts=0
39 dts_time=0.000000
40 duration=2048
41 duration_time=0.040000
42 convergence_duration=N/A
43 convergence_duration_time=N/A
44 size=230400
45 pos=2647
46 flags=K
47
48 [packets_and_frames.frame.1]
49 media_type=video
50 key_frame=1
51 pkt_pts=0
52 pkt_pts_time=0.000000
53 pkt_dts=0
54 pkt_dts_time=0.000000
55 pkt_duration=2048
56 pkt_duration_time=0.040000
57 pkt_pos=2647
58 width=320
59 height=240
60 pix_fmt=rgb24
61 sample_aspect_ratio=1\:1
62 pict_type=I
63 coded_picture_number=0
64 display_picture_number=0
65 interlaced_frame=0
66 top_field_first=0
67 repeat_pict=0
68 reference=0
69
70 [packets_and_frames.packet.2]
71 codec_type=video
72 stream_index=2
73 pts=0
74 pts_time=0.000000
75 dts=0
76 dts_time=0.000000
77 duration=2048
78 duration_time=0.040000
79 convergence_duration=N/A
80 convergence_duration_time=N/A
81 size=30000
82 pos=233068
83 flags=K
84
85 [packets_and_frames.frame.2]
86 media_type=video
87 key_frame=1
88 pkt_pts=0
89 pkt_pts_time=0.000000
90 pkt_dts=0
91 pkt_dts_time=0.000000
92 pkt_duration=2048
93 pkt_duration_time=0.040000
94 pkt_pos=233068
95 width=100
96 height=100
97 pix_fmt=rgb24
98 sample_aspect_ratio=1\:1
99 pict_type=I
100 coded_picture_number=0
101 display_picture_number=0
102 interlaced_frame=0
103 top_field_first=0
104 repeat_pict=0
105 reference=0
106
107 [packets_and_frames.packet.3]
108 codec_type=audio
109 stream_index=0
110 pts=1024
111 pts_time=0.023220
112 dts=1024
113 dts_time=0.023220
114 duration=1024
115 duration_time=0.023220
116 convergence_duration=N/A
117 convergence_duration_time=N/A
118 size=2048
119 pos=263073
120 flags=K
121
122 [packets_and_frames.frame.3]
123 media_type=audio
124 key_frame=1
125 pkt_pts=1024
126 pkt_pts_time=0.023220
127 pkt_dts=1024
128 pkt_dts_time=0.023220
129 pkt_duration=1024
130 pkt_duration_time=0.023220
131 pkt_pos=263073
132 sample_fmt=s16
133 nb_samples=1024
134 channels=1
135 channel_layout=unknown
136
137 [packets_and_frames.packet.4]
138 codec_type=video
139 stream_index=1
140 pts=2048
141 pts_time=0.040000
142 dts=2048
143 dts_time=0.040000
144 duration=2048
145 duration_time=0.040000
146 convergence_duration=N/A
147 convergence_duration_time=N/A
148 size=230400
149 pos=265151
150 flags=K
151
152 [packets_and_frames.frame.4]
153 media_type=video
154 key_frame=1
155 pkt_pts=2048
156 pkt_pts_time=0.040000
157 pkt_dts=2048
158 pkt_dts_time=0.040000
159 pkt_duration=2048
160 pkt_duration_time=0.040000
161 pkt_pos=265151
162 width=320
163 height=240
164 pix_fmt=rgb24
165 sample_aspect_ratio=1\:1
166 pict_type=I
167 coded_picture_number=0
168 display_picture_number=0
169 interlaced_frame=0
170 top_field_first=0
171 repeat_pict=0
172 reference=0
173
174 [packets_and_frames.packet.5]
175 codec_type=video
176 stream_index=2
177 pts=2048
178 pts_time=0.040000
179 dts=2048
180 dts_time=0.040000
181 duration=2048
182 duration_time=0.040000
183 convergence_duration=N/A
184 convergence_duration_time=N/A
185 size=30000
186 pos=495575
187 flags=K
188
189 [packets_and_frames.frame.5]
190 media_type=video
191 key_frame=1
192 pkt_pts=2048
193 pkt_pts_time=0.040000
194 pkt_dts=2048
195 pkt_dts_time=0.040000
196 pkt_duration=2048
197 pkt_duration_time=0.040000
198 pkt_pos=495575
199 width=100
200 height=100
201 pix_fmt=rgb24
202 sample_aspect_ratio=1\:1
203 pict_type=I
204 coded_picture_number=0
205 display_picture_number=0
206 interlaced_frame=0
207 top_field_first=0
208 repeat_pict=0
209 reference=0
210
211 [packets_and_frames.packet.6]
212 codec_type=audio
213 stream_index=0
214 pts=2048
215 pts_time=0.046440
216 dts=2048
217 dts_time=0.046440
218 duration=1024
219 duration_time=0.023220
220 convergence_duration=N/A
221 convergence_duration_time=N/A
222 size=2048
223 pos=525580
224 flags=K
225
226 [packets_and_frames.frame.6]
227 media_type=audio
228 key_frame=1
229 pkt_pts=2048
230 pkt_pts_time=0.046440
231 pkt_dts=2048
232 pkt_dts_time=0.046440
233 pkt_duration=1024
234 pkt_duration_time=0.023220
235 pkt_pos=525580
236 sample_fmt=s16
237 nb_samples=1024
238 channels=1
239 channel_layout=unknown
240
241 [packets_and_frames.packet.7]
242 codec_type=audio
243 stream_index=0
244 pts=3072
245 pts_time=0.069660
246 dts=3072
247 dts_time=0.069660
248 duration=1024
249 duration_time=0.023220
250 convergence_duration=N/A
251 convergence_duration_time=N/A
252 size=2048
253 pos=527651
254 flags=K
255
256 [packets_and_frames.frame.7]
257 media_type=audio
258 key_frame=1
259 pkt_pts=3072
260 pkt_pts_time=0.069660
261 pkt_dts=3072
262 pkt_dts_time=0.069660
263 pkt_duration=1024
264 pkt_duration_time=0.023220
265 pkt_pos=527651
266 sample_fmt=s16
267 nb_samples=1024
268 channels=1
269 channel_layout=unknown
270
271 [packets_and_frames.packet.8]
272 codec_type=video
273 stream_index=1
274 pts=4096
275 pts_time=0.080000
276 dts=4096
277 dts_time=0.080000
278 duration=2048
279 duration_time=0.040000
280 convergence_duration=N/A
281 convergence_duration_time=N/A
282 size=230400
283 pos=529729
284 flags=K
285
286 [packets_and_frames.frame.8]
287 media_type=video
288 key_frame=1
289 pkt_pts=4096
290 pkt_pts_time=0.080000
291 pkt_dts=4096
292 pkt_dts_time=0.080000
293 pkt_duration=2048
294 pkt_duration_time=0.040000
295 pkt_pos=529729
296 width=320
297 height=240
298 pix_fmt=rgb24
299 sample_aspect_ratio=1\:1
300 pict_type=I
301 coded_picture_number=0
302 display_picture_number=0
303 interlaced_frame=0
304 top_field_first=0
305 repeat_pict=0
306 reference=0
307
308 [packets_and_frames.packet.9]
309 codec_type=video
310 stream_index=2
311 pts=4096
312 pts_time=0.080000
313 dts=4096
314 dts_time=0.080000
315 duration=2048
316 duration_time=0.040000
317 convergence_duration=N/A
318 convergence_duration_time=N/A
319 size=30000
320 pos=760153
321 flags=K
322
323 [packets_and_frames.frame.9]
324 media_type=video
325 key_frame=1
326 pkt_pts=4096
327 pkt_pts_time=0.080000
328 pkt_dts=4096
329 pkt_dts_time=0.080000
330 pkt_duration=2048
331 pkt_duration_time=0.040000
332 pkt_pos=760153
333 width=100
334 height=100
335 pix_fmt=rgb24
336 sample_aspect_ratio=1\:1
337 pict_type=I
338 coded_picture_number=0
339 display_picture_number=0
340 interlaced_frame=0
341 top_field_first=0
342 repeat_pict=0
343 reference=0
344
345 [packets_and_frames.packet.10]
346 codec_type=audio
347 stream_index=0
348 pts=4096
349 pts_time=0.092880
350 dts=4096
351 dts_time=0.092880
352 duration=1024
353 duration_time=0.023220
354 convergence_duration=N/A
355 convergence_duration_time=N/A
356 size=2048
357 pos=790158
358 flags=K
359
360 [packets_and_frames.frame.10]
361 media_type=audio
362 key_frame=1
363 pkt_pts=4096
364 pkt_pts_time=0.092880
365 pkt_dts=4096
366 pkt_dts_time=0.092880
367 pkt_duration=1024
368 pkt_duration_time=0.023220
369 pkt_pos=790158
370 sample_fmt=s16
371 nb_samples=1024
372 channels=1
373 channel_layout=unknown
374
375 [packets_and_frames.packet.11]
376 codec_type=audio
377 stream_index=0
378 pts=5120
379 pts_time=0.116100
380 dts=5120
381 dts_time=0.116100
382 duration=1024
383 duration_time=0.023220
384 convergence_duration=N/A
385 convergence_duration_time=N/A
386 size=2048
387 pos=792229
388 flags=K
389
390 [packets_and_frames.frame.11]
391 media_type=audio
392 key_frame=1
393 pkt_pts=5120
394 pkt_pts_time=0.116100
395 pkt_dts=5120
396 pkt_dts_time=0.116100
397 pkt_duration=1024
398 pkt_duration_time=0.023220
399 pkt_pos=792229
400 sample_fmt=s16
401 nb_samples=1024
402 channels=1
403 channel_layout=unknown
404
405 [packets_and_frames.packet.12]
406 codec_type=video
407 stream_index=1
408 pts=6144
409 pts_time=0.120000
410 dts=6144
411 dts_time=0.120000
412 duration=2048
413 duration_time=0.040000
414 convergence_duration=N/A
415 convergence_duration_time=N/A
416 size=230400
417 pos=794307
418 flags=K
419
420 [packets_and_frames.frame.12]
421 media_type=video
422 key_frame=1
423 pkt_pts=6144
424 pkt_pts_time=0.120000
425 pkt_dts=6144
426 pkt_dts_time=0.120000
427 pkt_duration=2048
428 pkt_duration_time=0.040000
429 pkt_pos=794307
430 width=320
431 height=240
432 pix_fmt=rgb24
433 sample_aspect_ratio=1\:1
434 pict_type=I
435 coded_picture_number=0
436 display_picture_number=0
437 interlaced_frame=0
438 top_field_first=0
439 repeat_pict=0
440 reference=0
441
442 [packets_and_frames.packet.13]
443 codec_type=video
444 stream_index=2
445 pts=6144
446 pts_time=0.120000
447 dts=6144
448 dts_time=0.120000
449 duration=2048
450 duration_time=0.040000
451 convergence_duration=N/A
452 convergence_duration_time=N/A
453 size=30000
454 pos=1024731
455 flags=K
456
457 [packets_and_frames.frame.13]
458 media_type=video
459 key_frame=1
460 pkt_pts=6144
461 pkt_pts_time=0.120000
462 pkt_dts=6144
463 pkt_dts_time=0.120000
464 pkt_duration=2048
465 pkt_duration_time=0.040000
466 pkt_pos=1024731
467 width=100
468 height=100
469 pix_fmt=rgb24
470 sample_aspect_ratio=1\:1
471 pict_type=I
472 coded_picture_number=0
473 display_picture_number=0
474 interlaced_frame=0
475 top_field_first=0
476 repeat_pict=0
477 reference=0
478
479 [streams.stream.0]
480 index=0
481 codec_name=pcm_s16le
482 profile=unknown
483 codec_type=audio
484 codec_time_base=1/44100
485 codec_tag_string=[1][0][0][0]
486 codec_tag=0x0001
487 sample_fmt=s16
488 sample_rate=44100
489 channels=1
490 bits_per_sample=16
491 id=N/A
492 r_frame_rate=0/0
493 avg_frame_rate=0/0
494 time_base=1/44100
495 start_pts=0
496 start_time=0.000000
497 duration_ts=527406
498 duration=11.959320
499 bit_rate=705600
500 nb_frames=N/A
501 nb_read_frames=6
502 nb_read_packets=6
503
504 [streams.stream.0.disposition]
505 default=0
506 dub=0
507 original=0
508 comment=0
509 lyrics=0
510 karaoke=0
511 forced=0
512 hearing_impaired=0
513 visual_impaired=0
514 clean_effects=0
515 attached_pic=0
516
517 [streams.stream.0.tags]
518 E=mc²
519
520 [streams.stream.1]
521 index=1
522 codec_name=rawvideo
523 profile=unknown
524 codec_type=video
525 codec_time_base=1/51200
526 codec_tag_string=RGB[24]
527 codec_tag=0x18424752
528 width=320
529 height=240
530 has_b_frames=0
531 sample_aspect_ratio=1\:1
532 display_aspect_ratio=4\:3
533 pix_fmt=rgb24
534 level=-99
535 timecode=N/A
536 id=N/A
537 r_frame_rate=25/1
538 avg_frame_rate=25/1
539 time_base=1/51200
540 start_pts=0
541 start_time=0.000000
542 duration_ts=612317
543 duration=11.959316
544 bit_rate=N/A
545 nb_frames=N/A
546 nb_read_frames=4
547 nb_read_packets=4
548
549 [streams.stream.1.disposition]
550 default=0
551 dub=0
552 original=0
553 comment=0
554 lyrics=0
555 karaoke=0
556 forced=0
557 hearing_impaired=0
558 visual_impaired=0
559 clean_effects=0
560 attached_pic=0
561
562 [streams.stream.1.tags]
563 title=foobar
564 duration_ts=field-and-tags-conflict-attempt
565
566 [streams.stream.2]
567 index=2
568 codec_name=rawvideo
569 profile=unknown
570 codec_type=video
571 codec_time_base=1/51200
572 codec_tag_string=RGB[24]
573 codec_tag=0x18424752
574 width=100
575 height=100
576 has_b_frames=0
577 sample_aspect_ratio=1\:1
578 display_aspect_ratio=1\:1
579 pix_fmt=rgb24
580 level=-99
581 timecode=N/A
582 id=N/A
583 r_frame_rate=25/1
584 avg_frame_rate=25/1
585 time_base=1/51200
586 start_pts=0
587 start_time=0.000000
588 duration_ts=612317
589 duration=11.959316
590 bit_rate=N/A
591 nb_frames=N/A
592 nb_read_frames=4
593 nb_read_packets=4
594
595 [streams.stream.2.disposition]
596 default=0
597 dub=0
598 original=0
599 comment=0
600 lyrics=0
601 karaoke=0
602 forced=0
603 hearing_impaired=0
604 visual_impaired=0
605 clean_effects=0
606 attached_pic=0
607
608 [format]
609 filename=tests/data/ffprobe-test.nut
610 nb_streams=3
611 format_name=nut
612 start_time=0.000000
613 duration=11.959320
614 size=1054812
615 bit_rate=705599
616
617 [format.tags]
618 title=ffprobe test file
619 comment='A comment with CSV, XML & JSON special chars'\: <tag value\="x">
620 comment2=I ♥ Üñîçød€