ffprobe: Print color properties from show_frames
[ffmpeg.git] / tests / ref / fate / ffprobe_ini
1 # ffprobe output
2
3 [packets_and_frames.packet.0]
4 codec_type=audio
5 stream_index=0
6 pts=0
7 pts_time=0.000000
8 dts=0
9 dts_time=0.000000
10 duration=1024
11 duration_time=0.023220
12 convergence_duration=N/A
13 convergence_duration_time=N/A
14 size=2048
15 pos=647
16 flags=K_
17
18 [packets_and_frames.frame.0]
19 media_type=audio
20 stream_index=0
21 key_frame=1
22 pkt_pts=0
23 pkt_pts_time=0.000000
24 pkt_dts=0
25 pkt_dts_time=0.000000
26 best_effort_timestamp=0
27 best_effort_timestamp_time=0.000000
28 pkt_duration=1024
29 pkt_duration_time=0.023220
30 pkt_pos=647
31 pkt_size=2048
32 sample_fmt=s16
33 nb_samples=1024
34 channels=1
35 channel_layout=unknown
36
37 [packets_and_frames.packet.1]
38 codec_type=video
39 stream_index=1
40 pts=0
41 pts_time=0.000000
42 dts=0
43 dts_time=0.000000
44 duration=2048
45 duration_time=0.040000
46 convergence_duration=N/A
47 convergence_duration_time=N/A
48 size=230400
49 pos=2722
50 flags=K_
51
52 [packets_and_frames.frame.1]
53 media_type=video
54 stream_index=1
55 key_frame=1
56 pkt_pts=0
57 pkt_pts_time=0.000000
58 pkt_dts=0
59 pkt_dts_time=0.000000
60 best_effort_timestamp=0
61 best_effort_timestamp_time=0.000000
62 pkt_duration=2048
63 pkt_duration_time=0.040000
64 pkt_pos=2722
65 pkt_size=230400
66 width=320
67 height=240
68 pix_fmt=rgb24
69 sample_aspect_ratio=1\:1
70 pict_type=I
71 coded_picture_number=0
72 display_picture_number=0
73 interlaced_frame=0
74 top_field_first=0
75 repeat_pict=0
76 color_range=unknown
77 color_space=unknown
78 color_primaries=unknown
79 color_transfer=unknown
80 chroma_location=unspecified
81
82 [packets_and_frames.packet.2]
83 codec_type=video
84 stream_index=2
85 pts=0
86 pts_time=0.000000
87 dts=0
88 dts_time=0.000000
89 duration=2048
90 duration_time=0.040000
91 convergence_duration=N/A
92 convergence_duration_time=N/A
93 size=30000
94 pos=233143
95 flags=K_
96
97 [packets_and_frames.frame.2]
98 media_type=video
99 stream_index=2
100 key_frame=1
101 pkt_pts=0
102 pkt_pts_time=0.000000
103 pkt_dts=0
104 pkt_dts_time=0.000000
105 best_effort_timestamp=0
106 best_effort_timestamp_time=0.000000
107 pkt_duration=2048
108 pkt_duration_time=0.040000
109 pkt_pos=233143
110 pkt_size=30000
111 width=100
112 height=100
113 pix_fmt=rgb24
114 sample_aspect_ratio=1\:1
115 pict_type=I
116 coded_picture_number=0
117 display_picture_number=0
118 interlaced_frame=0
119 top_field_first=0
120 repeat_pict=0
121 color_range=unknown
122 color_space=unknown
123 color_primaries=unknown
124 color_transfer=unknown
125 chroma_location=unspecified
126
127 [packets_and_frames.packet.3]
128 codec_type=audio
129 stream_index=0
130 pts=1024
131 pts_time=0.023220
132 dts=1024
133 dts_time=0.023220
134 duration=1024
135 duration_time=0.023220
136 convergence_duration=N/A
137 convergence_duration_time=N/A
138 size=2048
139 pos=263148
140 flags=K_
141
142 [packets_and_frames.frame.3]
143 media_type=audio
144 stream_index=0
145 key_frame=1
146 pkt_pts=1024
147 pkt_pts_time=0.023220
148 pkt_dts=1024
149 pkt_dts_time=0.023220
150 best_effort_timestamp=1024
151 best_effort_timestamp_time=0.023220
152 pkt_duration=1024
153 pkt_duration_time=0.023220
154 pkt_pos=263148
155 pkt_size=2048
156 sample_fmt=s16
157 nb_samples=1024
158 channels=1
159 channel_layout=unknown
160
161 [packets_and_frames.packet.4]
162 codec_type=video
163 stream_index=1
164 pts=2048
165 pts_time=0.040000
166 dts=2048
167 dts_time=0.040000
168 duration=2048
169 duration_time=0.040000
170 convergence_duration=N/A
171 convergence_duration_time=N/A
172 size=230400
173 pos=265226
174 flags=K_
175
176 [packets_and_frames.frame.4]
177 media_type=video
178 stream_index=1
179 key_frame=1
180 pkt_pts=2048
181 pkt_pts_time=0.040000
182 pkt_dts=2048
183 pkt_dts_time=0.040000
184 best_effort_timestamp=2048
185 best_effort_timestamp_time=0.040000
186 pkt_duration=2048
187 pkt_duration_time=0.040000
188 pkt_pos=265226
189 pkt_size=230400
190 width=320
191 height=240
192 pix_fmt=rgb24
193 sample_aspect_ratio=1\:1
194 pict_type=I
195 coded_picture_number=0
196 display_picture_number=0
197 interlaced_frame=0
198 top_field_first=0
199 repeat_pict=0
200 color_range=unknown
201 color_space=unknown
202 color_primaries=unknown
203 color_transfer=unknown
204 chroma_location=unspecified
205
206 [packets_and_frames.packet.5]
207 codec_type=video
208 stream_index=2
209 pts=2048
210 pts_time=0.040000
211 dts=2048
212 dts_time=0.040000
213 duration=2048
214 duration_time=0.040000
215 convergence_duration=N/A
216 convergence_duration_time=N/A
217 size=30000
218 pos=495650
219 flags=K_
220
221 [packets_and_frames.frame.5]
222 media_type=video
223 stream_index=2
224 key_frame=1
225 pkt_pts=2048
226 pkt_pts_time=0.040000
227 pkt_dts=2048
228 pkt_dts_time=0.040000
229 best_effort_timestamp=2048
230 best_effort_timestamp_time=0.040000
231 pkt_duration=2048
232 pkt_duration_time=0.040000
233 pkt_pos=495650
234 pkt_size=30000
235 width=100
236 height=100
237 pix_fmt=rgb24
238 sample_aspect_ratio=1\:1
239 pict_type=I
240 coded_picture_number=0
241 display_picture_number=0
242 interlaced_frame=0
243 top_field_first=0
244 repeat_pict=0
245 color_range=unknown
246 color_space=unknown
247 color_primaries=unknown
248 color_transfer=unknown
249 chroma_location=unspecified
250
251 [packets_and_frames.packet.6]
252 codec_type=audio
253 stream_index=0
254 pts=2048
255 pts_time=0.046440
256 dts=2048
257 dts_time=0.046440
258 duration=1024
259 duration_time=0.023220
260 convergence_duration=N/A
261 convergence_duration_time=N/A
262 size=2048
263 pos=525655
264 flags=K_
265
266 [packets_and_frames.frame.6]
267 media_type=audio
268 stream_index=0
269 key_frame=1
270 pkt_pts=2048
271 pkt_pts_time=0.046440
272 pkt_dts=2048
273 pkt_dts_time=0.046440
274 best_effort_timestamp=2048
275 best_effort_timestamp_time=0.046440
276 pkt_duration=1024
277 pkt_duration_time=0.023220
278 pkt_pos=525655
279 pkt_size=2048
280 sample_fmt=s16
281 nb_samples=1024
282 channels=1
283 channel_layout=unknown
284
285 [packets_and_frames.packet.7]
286 codec_type=audio
287 stream_index=0
288 pts=3072
289 pts_time=0.069660
290 dts=3072
291 dts_time=0.069660
292 duration=1024
293 duration_time=0.023220
294 convergence_duration=N/A
295 convergence_duration_time=N/A
296 size=2048
297 pos=527726
298 flags=K_
299
300 [packets_and_frames.frame.7]
301 media_type=audio
302 stream_index=0
303 key_frame=1
304 pkt_pts=3072
305 pkt_pts_time=0.069660
306 pkt_dts=3072
307 pkt_dts_time=0.069660
308 best_effort_timestamp=3072
309 best_effort_timestamp_time=0.069660
310 pkt_duration=1024
311 pkt_duration_time=0.023220
312 pkt_pos=527726
313 pkt_size=2048
314 sample_fmt=s16
315 nb_samples=1024
316 channels=1
317 channel_layout=unknown
318
319 [packets_and_frames.packet.8]
320 codec_type=video
321 stream_index=1
322 pts=4096
323 pts_time=0.080000
324 dts=4096
325 dts_time=0.080000
326 duration=2048
327 duration_time=0.040000
328 convergence_duration=N/A
329 convergence_duration_time=N/A
330 size=230400
331 pos=529804
332 flags=K_
333
334 [packets_and_frames.frame.8]
335 media_type=video
336 stream_index=1
337 key_frame=1
338 pkt_pts=4096
339 pkt_pts_time=0.080000
340 pkt_dts=4096
341 pkt_dts_time=0.080000
342 best_effort_timestamp=4096
343 best_effort_timestamp_time=0.080000
344 pkt_duration=2048
345 pkt_duration_time=0.040000
346 pkt_pos=529804
347 pkt_size=230400
348 width=320
349 height=240
350 pix_fmt=rgb24
351 sample_aspect_ratio=1\:1
352 pict_type=I
353 coded_picture_number=0
354 display_picture_number=0
355 interlaced_frame=0
356 top_field_first=0
357 repeat_pict=0
358 color_range=unknown
359 color_space=unknown
360 color_primaries=unknown
361 color_transfer=unknown
362 chroma_location=unspecified
363
364 [packets_and_frames.packet.9]
365 codec_type=video
366 stream_index=2
367 pts=4096
368 pts_time=0.080000
369 dts=4096
370 dts_time=0.080000
371 duration=2048
372 duration_time=0.040000
373 convergence_duration=N/A
374 convergence_duration_time=N/A
375 size=30000
376 pos=760228
377 flags=K_
378
379 [packets_and_frames.frame.9]
380 media_type=video
381 stream_index=2
382 key_frame=1
383 pkt_pts=4096
384 pkt_pts_time=0.080000
385 pkt_dts=4096
386 pkt_dts_time=0.080000
387 best_effort_timestamp=4096
388 best_effort_timestamp_time=0.080000
389 pkt_duration=2048
390 pkt_duration_time=0.040000
391 pkt_pos=760228
392 pkt_size=30000
393 width=100
394 height=100
395 pix_fmt=rgb24
396 sample_aspect_ratio=1\:1
397 pict_type=I
398 coded_picture_number=0
399 display_picture_number=0
400 interlaced_frame=0
401 top_field_first=0
402 repeat_pict=0
403 color_range=unknown
404 color_space=unknown
405 color_primaries=unknown
406 color_transfer=unknown
407 chroma_location=unspecified
408
409 [packets_and_frames.packet.10]
410 codec_type=audio
411 stream_index=0
412 pts=4096
413 pts_time=0.092880
414 dts=4096
415 dts_time=0.092880
416 duration=1024
417 duration_time=0.023220
418 convergence_duration=N/A
419 convergence_duration_time=N/A
420 size=2048
421 pos=790233
422 flags=K_
423
424 [packets_and_frames.frame.10]
425 media_type=audio
426 stream_index=0
427 key_frame=1
428 pkt_pts=4096
429 pkt_pts_time=0.092880
430 pkt_dts=4096
431 pkt_dts_time=0.092880
432 best_effort_timestamp=4096
433 best_effort_timestamp_time=0.092880
434 pkt_duration=1024
435 pkt_duration_time=0.023220
436 pkt_pos=790233
437 pkt_size=2048
438 sample_fmt=s16
439 nb_samples=1024
440 channels=1
441 channel_layout=unknown
442
443 [packets_and_frames.packet.11]
444 codec_type=audio
445 stream_index=0
446 pts=5120
447 pts_time=0.116100
448 dts=5120
449 dts_time=0.116100
450 duration=393
451 duration_time=0.008912
452 convergence_duration=N/A
453 convergence_duration_time=N/A
454 size=786
455 pos=792304
456 flags=K_
457
458 [packets_and_frames.frame.11]
459 media_type=audio
460 stream_index=0
461 key_frame=1
462 pkt_pts=5120
463 pkt_pts_time=0.116100
464 pkt_dts=5120
465 pkt_dts_time=0.116100
466 best_effort_timestamp=5120
467 best_effort_timestamp_time=0.116100
468 pkt_duration=393
469 pkt_duration_time=0.008912
470 pkt_pos=792304
471 pkt_size=786
472 sample_fmt=s16
473 nb_samples=393
474 channels=1
475 channel_layout=unknown
476
477 [packets_and_frames.packet.12]
478 codec_type=video
479 stream_index=1
480 pts=6144
481 pts_time=0.120000
482 dts=6144
483 dts_time=0.120000
484 duration=2048
485 duration_time=0.040000
486 convergence_duration=N/A
487 convergence_duration_time=N/A
488 size=230400
489 pos=793120
490 flags=K_
491
492 [packets_and_frames.frame.12]
493 media_type=video
494 stream_index=1
495 key_frame=1
496 pkt_pts=6144
497 pkt_pts_time=0.120000
498 pkt_dts=6144
499 pkt_dts_time=0.120000
500 best_effort_timestamp=6144
501 best_effort_timestamp_time=0.120000
502 pkt_duration=2048
503 pkt_duration_time=0.040000
504 pkt_pos=793120
505 pkt_size=230400
506 width=320
507 height=240
508 pix_fmt=rgb24
509 sample_aspect_ratio=1\:1
510 pict_type=I
511 coded_picture_number=0
512 display_picture_number=0
513 interlaced_frame=0
514 top_field_first=0
515 repeat_pict=0
516 color_range=unknown
517 color_space=unknown
518 color_primaries=unknown
519 color_transfer=unknown
520 chroma_location=unspecified
521
522 [packets_and_frames.packet.13]
523 codec_type=video
524 stream_index=2
525 pts=6144
526 pts_time=0.120000
527 dts=6144
528 dts_time=0.120000
529 duration=2048
530 duration_time=0.040000
531 convergence_duration=N/A
532 convergence_duration_time=N/A
533 size=30000
534 pos=1023544
535 flags=K_
536
537 [packets_and_frames.frame.13]
538 media_type=video
539 stream_index=2
540 key_frame=1
541 pkt_pts=6144
542 pkt_pts_time=0.120000
543 pkt_dts=6144
544 pkt_dts_time=0.120000
545 best_effort_timestamp=6144
546 best_effort_timestamp_time=0.120000
547 pkt_duration=2048
548 pkt_duration_time=0.040000
549 pkt_pos=1023544
550 pkt_size=30000
551 width=100
552 height=100
553 pix_fmt=rgb24
554 sample_aspect_ratio=1\:1
555 pict_type=I
556 coded_picture_number=0
557 display_picture_number=0
558 interlaced_frame=0
559 top_field_first=0
560 repeat_pict=0
561 color_range=unknown
562 color_space=unknown
563 color_primaries=unknown
564 color_transfer=unknown
565 chroma_location=unspecified
566
567 [streams.stream.0]
568 index=0
569 codec_name=pcm_s16le
570 profile=unknown
571 codec_type=audio
572 codec_time_base=1/44100
573 codec_tag_string=PSD[16]
574 codec_tag=0x10445350
575 sample_fmt=s16
576 sample_rate=44100
577 channels=1
578 channel_layout=unknown
579 bits_per_sample=16
580 id=N/A
581 r_frame_rate=0/0
582 avg_frame_rate=0/0
583 time_base=1/44100
584 start_pts=0
585 start_time=0.000000
586 duration_ts=N/A
587 duration=N/A
588 bit_rate=705600
589 max_bit_rate=N/A
590 bits_per_raw_sample=N/A
591 nb_frames=N/A
592 nb_read_frames=6
593 nb_read_packets=6
594
595 [streams.stream.0.disposition]
596 default=0
597 dub=0
598 original=0
599 comment=0
600 lyrics=0
601 karaoke=0
602 forced=0
603 hearing_impaired=0
604 visual_impaired=0
605 clean_effects=0
606 attached_pic=0
607 timed_thumbnails=0
608
609 [streams.stream.0.tags]
610 E=mc²
611 encoder=Lavc pcm_s16le
612
613 [streams.stream.1]
614 index=1
615 codec_name=rawvideo
616 profile=unknown
617 codec_type=video
618 codec_time_base=1/25
619 codec_tag_string=RGB[24]
620 codec_tag=0x18424752
621 width=320
622 height=240
623 coded_width=320
624 coded_height=240
625 has_b_frames=0
626 sample_aspect_ratio=1\:1
627 display_aspect_ratio=4\:3
628 pix_fmt=rgb24
629 level=-99
630 color_range=N/A
631 color_space=unknown
632 color_transfer=unknown
633 color_primaries=unknown
634 chroma_location=unspecified
635 field_order=unknown
636 timecode=N/A
637 refs=1
638 id=N/A
639 r_frame_rate=25/1
640 avg_frame_rate=25/1
641 time_base=1/51200
642 start_pts=0
643 start_time=0.000000
644 duration_ts=N/A
645 duration=N/A
646 bit_rate=N/A
647 max_bit_rate=N/A
648 bits_per_raw_sample=N/A
649 nb_frames=N/A
650 nb_read_frames=4
651 nb_read_packets=4
652
653 [streams.stream.1.disposition]
654 default=0
655 dub=0
656 original=0
657 comment=0
658 lyrics=0
659 karaoke=0
660 forced=0
661 hearing_impaired=0
662 visual_impaired=0
663 clean_effects=0
664 attached_pic=0
665 timed_thumbnails=0
666
667 [streams.stream.1.tags]
668 title=foobar
669 duration_ts=field-and-tags-conflict-attempt
670 encoder=Lavc rawvideo
671
672 [streams.stream.2]
673 index=2
674 codec_name=rawvideo
675 profile=unknown
676 codec_type=video
677 codec_time_base=1/25
678 codec_tag_string=RGB[24]
679 codec_tag=0x18424752
680 width=100
681 height=100
682 coded_width=100
683 coded_height=100
684 has_b_frames=0
685 sample_aspect_ratio=1\:1
686 display_aspect_ratio=1\:1
687 pix_fmt=rgb24
688 level=-99
689 color_range=N/A
690 color_space=unknown
691 color_transfer=unknown
692 color_primaries=unknown
693 chroma_location=unspecified
694 field_order=unknown
695 timecode=N/A
696 refs=1
697 id=N/A
698 r_frame_rate=25/1
699 avg_frame_rate=25/1
700 time_base=1/51200
701 start_pts=0
702 start_time=0.000000
703 duration_ts=N/A
704 duration=N/A
705 bit_rate=N/A
706 max_bit_rate=N/A
707 bits_per_raw_sample=N/A
708 nb_frames=N/A
709 nb_read_frames=4
710 nb_read_packets=4
711
712 [streams.stream.2.disposition]
713 default=0
714 dub=0
715 original=0
716 comment=0
717 lyrics=0
718 karaoke=0
719 forced=0
720 hearing_impaired=0
721 visual_impaired=0
722 clean_effects=0
723 attached_pic=0
724 timed_thumbnails=0
725
726 [streams.stream.2.tags]
727 encoder=Lavc rawvideo
728
729 [format]
730 filename=tests/data/ffprobe-test.nut
731 nb_streams=3
732 nb_programs=0
733 format_name=nut
734 start_time=0.000000
735 duration=0.120000
736 size=1053624
737 bit_rate=70241600
738 probe_score=100
739
740 [format.tags]
741 title=ffprobe test file
742 comment='A comment with CSV, XML & JSON special chars'\: <tag value\="x">
743 comment2=I ♥ Üñîçød€