ffprobe: Print color properties from show_frames
[ffmpeg.git] / tests / ref / fate / ffprobe_flat
1 packets_and_frames.packet.0.codec_type="audio"
2 packets_and_frames.packet.0.stream_index=0
3 packets_and_frames.packet.0.pts=0
4 packets_and_frames.packet.0.pts_time="0.000000"
5 packets_and_frames.packet.0.dts=0
6 packets_and_frames.packet.0.dts_time="0.000000"
7 packets_and_frames.packet.0.duration=1024
8 packets_and_frames.packet.0.duration_time="0.023220"
9 packets_and_frames.packet.0.convergence_duration="N/A"
10 packets_and_frames.packet.0.convergence_duration_time="N/A"
11 packets_and_frames.packet.0.size="2048"
12 packets_and_frames.packet.0.pos="647"
13 packets_and_frames.packet.0.flags="K_"
14 packets_and_frames.frame.0.media_type="audio"
15 packets_and_frames.frame.0.stream_index=0
16 packets_and_frames.frame.0.key_frame=1
17 packets_and_frames.frame.0.pkt_pts=0
18 packets_and_frames.frame.0.pkt_pts_time="0.000000"
19 packets_and_frames.frame.0.pkt_dts=0
20 packets_and_frames.frame.0.pkt_dts_time="0.000000"
21 packets_and_frames.frame.0.best_effort_timestamp=0
22 packets_and_frames.frame.0.best_effort_timestamp_time="0.000000"
23 packets_and_frames.frame.0.pkt_duration=1024
24 packets_and_frames.frame.0.pkt_duration_time="0.023220"
25 packets_and_frames.frame.0.pkt_pos="647"
26 packets_and_frames.frame.0.pkt_size="2048"
27 packets_and_frames.frame.0.sample_fmt="s16"
28 packets_and_frames.frame.0.nb_samples=1024
29 packets_and_frames.frame.0.channels=1
30 packets_and_frames.frame.0.channel_layout="unknown"
31 packets_and_frames.packet.1.codec_type="video"
32 packets_and_frames.packet.1.stream_index=1
33 packets_and_frames.packet.1.pts=0
34 packets_and_frames.packet.1.pts_time="0.000000"
35 packets_and_frames.packet.1.dts=0
36 packets_and_frames.packet.1.dts_time="0.000000"
37 packets_and_frames.packet.1.duration=2048
38 packets_and_frames.packet.1.duration_time="0.040000"
39 packets_and_frames.packet.1.convergence_duration="N/A"
40 packets_and_frames.packet.1.convergence_duration_time="N/A"
41 packets_and_frames.packet.1.size="230400"
42 packets_and_frames.packet.1.pos="2722"
43 packets_and_frames.packet.1.flags="K_"
44 packets_and_frames.frame.1.media_type="video"
45 packets_and_frames.frame.1.stream_index=1
46 packets_and_frames.frame.1.key_frame=1
47 packets_and_frames.frame.1.pkt_pts=0
48 packets_and_frames.frame.1.pkt_pts_time="0.000000"
49 packets_and_frames.frame.1.pkt_dts=0
50 packets_and_frames.frame.1.pkt_dts_time="0.000000"
51 packets_and_frames.frame.1.best_effort_timestamp=0
52 packets_and_frames.frame.1.best_effort_timestamp_time="0.000000"
53 packets_and_frames.frame.1.pkt_duration=2048
54 packets_and_frames.frame.1.pkt_duration_time="0.040000"
55 packets_and_frames.frame.1.pkt_pos="2722"
56 packets_and_frames.frame.1.pkt_size="230400"
57 packets_and_frames.frame.1.width=320
58 packets_and_frames.frame.1.height=240
59 packets_and_frames.frame.1.pix_fmt="rgb24"
60 packets_and_frames.frame.1.sample_aspect_ratio="1:1"
61 packets_and_frames.frame.1.pict_type="I"
62 packets_and_frames.frame.1.coded_picture_number=0
63 packets_and_frames.frame.1.display_picture_number=0
64 packets_and_frames.frame.1.interlaced_frame=0
65 packets_and_frames.frame.1.top_field_first=0
66 packets_and_frames.frame.1.repeat_pict=0
67 packets_and_frames.frame.1.color_range="unknown"
68 packets_and_frames.frame.1.color_space="unknown"
69 packets_and_frames.frame.1.color_primaries="unknown"
70 packets_and_frames.frame.1.color_transfer="unknown"
71 packets_and_frames.frame.1.chroma_location="unspecified"
72 packets_and_frames.packet.2.codec_type="video"
73 packets_and_frames.packet.2.stream_index=2
74 packets_and_frames.packet.2.pts=0
75 packets_and_frames.packet.2.pts_time="0.000000"
76 packets_and_frames.packet.2.dts=0
77 packets_and_frames.packet.2.dts_time="0.000000"
78 packets_and_frames.packet.2.duration=2048
79 packets_and_frames.packet.2.duration_time="0.040000"
80 packets_and_frames.packet.2.convergence_duration="N/A"
81 packets_and_frames.packet.2.convergence_duration_time="N/A"
82 packets_and_frames.packet.2.size="30000"
83 packets_and_frames.packet.2.pos="233143"
84 packets_and_frames.packet.2.flags="K_"
85 packets_and_frames.frame.2.media_type="video"
86 packets_and_frames.frame.2.stream_index=2
87 packets_and_frames.frame.2.key_frame=1
88 packets_and_frames.frame.2.pkt_pts=0
89 packets_and_frames.frame.2.pkt_pts_time="0.000000"
90 packets_and_frames.frame.2.pkt_dts=0
91 packets_and_frames.frame.2.pkt_dts_time="0.000000"
92 packets_and_frames.frame.2.best_effort_timestamp=0
93 packets_and_frames.frame.2.best_effort_timestamp_time="0.000000"
94 packets_and_frames.frame.2.pkt_duration=2048
95 packets_and_frames.frame.2.pkt_duration_time="0.040000"
96 packets_and_frames.frame.2.pkt_pos="233143"
97 packets_and_frames.frame.2.pkt_size="30000"
98 packets_and_frames.frame.2.width=100
99 packets_and_frames.frame.2.height=100
100 packets_and_frames.frame.2.pix_fmt="rgb24"
101 packets_and_frames.frame.2.sample_aspect_ratio="1:1"
102 packets_and_frames.frame.2.pict_type="I"
103 packets_and_frames.frame.2.coded_picture_number=0
104 packets_and_frames.frame.2.display_picture_number=0
105 packets_and_frames.frame.2.interlaced_frame=0
106 packets_and_frames.frame.2.top_field_first=0
107 packets_and_frames.frame.2.repeat_pict=0
108 packets_and_frames.frame.2.color_range="unknown"
109 packets_and_frames.frame.2.color_space="unknown"
110 packets_and_frames.frame.2.color_primaries="unknown"
111 packets_and_frames.frame.2.color_transfer="unknown"
112 packets_and_frames.frame.2.chroma_location="unspecified"
113 packets_and_frames.packet.3.codec_type="audio"
114 packets_and_frames.packet.3.stream_index=0
115 packets_and_frames.packet.3.pts=1024
116 packets_and_frames.packet.3.pts_time="0.023220"
117 packets_and_frames.packet.3.dts=1024
118 packets_and_frames.packet.3.dts_time="0.023220"
119 packets_and_frames.packet.3.duration=1024
120 packets_and_frames.packet.3.duration_time="0.023220"
121 packets_and_frames.packet.3.convergence_duration="N/A"
122 packets_and_frames.packet.3.convergence_duration_time="N/A"
123 packets_and_frames.packet.3.size="2048"
124 packets_and_frames.packet.3.pos="263148"
125 packets_and_frames.packet.3.flags="K_"
126 packets_and_frames.frame.3.media_type="audio"
127 packets_and_frames.frame.3.stream_index=0
128 packets_and_frames.frame.3.key_frame=1
129 packets_and_frames.frame.3.pkt_pts=1024
130 packets_and_frames.frame.3.pkt_pts_time="0.023220"
131 packets_and_frames.frame.3.pkt_dts=1024
132 packets_and_frames.frame.3.pkt_dts_time="0.023220"
133 packets_and_frames.frame.3.best_effort_timestamp=1024
134 packets_and_frames.frame.3.best_effort_timestamp_time="0.023220"
135 packets_and_frames.frame.3.pkt_duration=1024
136 packets_and_frames.frame.3.pkt_duration_time="0.023220"
137 packets_and_frames.frame.3.pkt_pos="263148"
138 packets_and_frames.frame.3.pkt_size="2048"
139 packets_and_frames.frame.3.sample_fmt="s16"
140 packets_and_frames.frame.3.nb_samples=1024
141 packets_and_frames.frame.3.channels=1
142 packets_and_frames.frame.3.channel_layout="unknown"
143 packets_and_frames.packet.4.codec_type="video"
144 packets_and_frames.packet.4.stream_index=1
145 packets_and_frames.packet.4.pts=2048
146 packets_and_frames.packet.4.pts_time="0.040000"
147 packets_and_frames.packet.4.dts=2048
148 packets_and_frames.packet.4.dts_time="0.040000"
149 packets_and_frames.packet.4.duration=2048
150 packets_and_frames.packet.4.duration_time="0.040000"
151 packets_and_frames.packet.4.convergence_duration="N/A"
152 packets_and_frames.packet.4.convergence_duration_time="N/A"
153 packets_and_frames.packet.4.size="230400"
154 packets_and_frames.packet.4.pos="265226"
155 packets_and_frames.packet.4.flags="K_"
156 packets_and_frames.frame.4.media_type="video"
157 packets_and_frames.frame.4.stream_index=1
158 packets_and_frames.frame.4.key_frame=1
159 packets_and_frames.frame.4.pkt_pts=2048
160 packets_and_frames.frame.4.pkt_pts_time="0.040000"
161 packets_and_frames.frame.4.pkt_dts=2048
162 packets_and_frames.frame.4.pkt_dts_time="0.040000"
163 packets_and_frames.frame.4.best_effort_timestamp=2048
164 packets_and_frames.frame.4.best_effort_timestamp_time="0.040000"
165 packets_and_frames.frame.4.pkt_duration=2048
166 packets_and_frames.frame.4.pkt_duration_time="0.040000"
167 packets_and_frames.frame.4.pkt_pos="265226"
168 packets_and_frames.frame.4.pkt_size="230400"
169 packets_and_frames.frame.4.width=320
170 packets_and_frames.frame.4.height=240
171 packets_and_frames.frame.4.pix_fmt="rgb24"
172 packets_and_frames.frame.4.sample_aspect_ratio="1:1"
173 packets_and_frames.frame.4.pict_type="I"
174 packets_and_frames.frame.4.coded_picture_number=0
175 packets_and_frames.frame.4.display_picture_number=0
176 packets_and_frames.frame.4.interlaced_frame=0
177 packets_and_frames.frame.4.top_field_first=0
178 packets_and_frames.frame.4.repeat_pict=0
179 packets_and_frames.frame.4.color_range="unknown"
180 packets_and_frames.frame.4.color_space="unknown"
181 packets_and_frames.frame.4.color_primaries="unknown"
182 packets_and_frames.frame.4.color_transfer="unknown"
183 packets_and_frames.frame.4.chroma_location="unspecified"
184 packets_and_frames.packet.5.codec_type="video"
185 packets_and_frames.packet.5.stream_index=2
186 packets_and_frames.packet.5.pts=2048
187 packets_and_frames.packet.5.pts_time="0.040000"
188 packets_and_frames.packet.5.dts=2048
189 packets_and_frames.packet.5.dts_time="0.040000"
190 packets_and_frames.packet.5.duration=2048
191 packets_and_frames.packet.5.duration_time="0.040000"
192 packets_and_frames.packet.5.convergence_duration="N/A"
193 packets_and_frames.packet.5.convergence_duration_time="N/A"
194 packets_and_frames.packet.5.size="30000"
195 packets_and_frames.packet.5.pos="495650"
196 packets_and_frames.packet.5.flags="K_"
197 packets_and_frames.frame.5.media_type="video"
198 packets_and_frames.frame.5.stream_index=2
199 packets_and_frames.frame.5.key_frame=1
200 packets_and_frames.frame.5.pkt_pts=2048
201 packets_and_frames.frame.5.pkt_pts_time="0.040000"
202 packets_and_frames.frame.5.pkt_dts=2048
203 packets_and_frames.frame.5.pkt_dts_time="0.040000"
204 packets_and_frames.frame.5.best_effort_timestamp=2048
205 packets_and_frames.frame.5.best_effort_timestamp_time="0.040000"
206 packets_and_frames.frame.5.pkt_duration=2048
207 packets_and_frames.frame.5.pkt_duration_time="0.040000"
208 packets_and_frames.frame.5.pkt_pos="495650"
209 packets_and_frames.frame.5.pkt_size="30000"
210 packets_and_frames.frame.5.width=100
211 packets_and_frames.frame.5.height=100
212 packets_and_frames.frame.5.pix_fmt="rgb24"
213 packets_and_frames.frame.5.sample_aspect_ratio="1:1"
214 packets_and_frames.frame.5.pict_type="I"
215 packets_and_frames.frame.5.coded_picture_number=0
216 packets_and_frames.frame.5.display_picture_number=0
217 packets_and_frames.frame.5.interlaced_frame=0
218 packets_and_frames.frame.5.top_field_first=0
219 packets_and_frames.frame.5.repeat_pict=0
220 packets_and_frames.frame.5.color_range="unknown"
221 packets_and_frames.frame.5.color_space="unknown"
222 packets_and_frames.frame.5.color_primaries="unknown"
223 packets_and_frames.frame.5.color_transfer="unknown"
224 packets_and_frames.frame.5.chroma_location="unspecified"
225 packets_and_frames.packet.6.codec_type="audio"
226 packets_and_frames.packet.6.stream_index=0
227 packets_and_frames.packet.6.pts=2048
228 packets_and_frames.packet.6.pts_time="0.046440"
229 packets_and_frames.packet.6.dts=2048
230 packets_and_frames.packet.6.dts_time="0.046440"
231 packets_and_frames.packet.6.duration=1024
232 packets_and_frames.packet.6.duration_time="0.023220"
233 packets_and_frames.packet.6.convergence_duration="N/A"
234 packets_and_frames.packet.6.convergence_duration_time="N/A"
235 packets_and_frames.packet.6.size="2048"
236 packets_and_frames.packet.6.pos="525655"
237 packets_and_frames.packet.6.flags="K_"
238 packets_and_frames.frame.6.media_type="audio"
239 packets_and_frames.frame.6.stream_index=0
240 packets_and_frames.frame.6.key_frame=1
241 packets_and_frames.frame.6.pkt_pts=2048
242 packets_and_frames.frame.6.pkt_pts_time="0.046440"
243 packets_and_frames.frame.6.pkt_dts=2048
244 packets_and_frames.frame.6.pkt_dts_time="0.046440"
245 packets_and_frames.frame.6.best_effort_timestamp=2048
246 packets_and_frames.frame.6.best_effort_timestamp_time="0.046440"
247 packets_and_frames.frame.6.pkt_duration=1024
248 packets_and_frames.frame.6.pkt_duration_time="0.023220"
249 packets_and_frames.frame.6.pkt_pos="525655"
250 packets_and_frames.frame.6.pkt_size="2048"
251 packets_and_frames.frame.6.sample_fmt="s16"
252 packets_and_frames.frame.6.nb_samples=1024
253 packets_and_frames.frame.6.channels=1
254 packets_and_frames.frame.6.channel_layout="unknown"
255 packets_and_frames.packet.7.codec_type="audio"
256 packets_and_frames.packet.7.stream_index=0
257 packets_and_frames.packet.7.pts=3072
258 packets_and_frames.packet.7.pts_time="0.069660"
259 packets_and_frames.packet.7.dts=3072
260 packets_and_frames.packet.7.dts_time="0.069660"
261 packets_and_frames.packet.7.duration=1024
262 packets_and_frames.packet.7.duration_time="0.023220"
263 packets_and_frames.packet.7.convergence_duration="N/A"
264 packets_and_frames.packet.7.convergence_duration_time="N/A"
265 packets_and_frames.packet.7.size="2048"
266 packets_and_frames.packet.7.pos="527726"
267 packets_and_frames.packet.7.flags="K_"
268 packets_and_frames.frame.7.media_type="audio"
269 packets_and_frames.frame.7.stream_index=0
270 packets_and_frames.frame.7.key_frame=1
271 packets_and_frames.frame.7.pkt_pts=3072
272 packets_and_frames.frame.7.pkt_pts_time="0.069660"
273 packets_and_frames.frame.7.pkt_dts=3072
274 packets_and_frames.frame.7.pkt_dts_time="0.069660"
275 packets_and_frames.frame.7.best_effort_timestamp=3072
276 packets_and_frames.frame.7.best_effort_timestamp_time="0.069660"
277 packets_and_frames.frame.7.pkt_duration=1024
278 packets_and_frames.frame.7.pkt_duration_time="0.023220"
279 packets_and_frames.frame.7.pkt_pos="527726"
280 packets_and_frames.frame.7.pkt_size="2048"
281 packets_and_frames.frame.7.sample_fmt="s16"
282 packets_and_frames.frame.7.nb_samples=1024
283 packets_and_frames.frame.7.channels=1
284 packets_and_frames.frame.7.channel_layout="unknown"
285 packets_and_frames.packet.8.codec_type="video"
286 packets_and_frames.packet.8.stream_index=1
287 packets_and_frames.packet.8.pts=4096
288 packets_and_frames.packet.8.pts_time="0.080000"
289 packets_and_frames.packet.8.dts=4096
290 packets_and_frames.packet.8.dts_time="0.080000"
291 packets_and_frames.packet.8.duration=2048
292 packets_and_frames.packet.8.duration_time="0.040000"
293 packets_and_frames.packet.8.convergence_duration="N/A"
294 packets_and_frames.packet.8.convergence_duration_time="N/A"
295 packets_and_frames.packet.8.size="230400"
296 packets_and_frames.packet.8.pos="529804"
297 packets_and_frames.packet.8.flags="K_"
298 packets_and_frames.frame.8.media_type="video"
299 packets_and_frames.frame.8.stream_index=1
300 packets_and_frames.frame.8.key_frame=1
301 packets_and_frames.frame.8.pkt_pts=4096
302 packets_and_frames.frame.8.pkt_pts_time="0.080000"
303 packets_and_frames.frame.8.pkt_dts=4096
304 packets_and_frames.frame.8.pkt_dts_time="0.080000"
305 packets_and_frames.frame.8.best_effort_timestamp=4096
306 packets_and_frames.frame.8.best_effort_timestamp_time="0.080000"
307 packets_and_frames.frame.8.pkt_duration=2048
308 packets_and_frames.frame.8.pkt_duration_time="0.040000"
309 packets_and_frames.frame.8.pkt_pos="529804"
310 packets_and_frames.frame.8.pkt_size="230400"
311 packets_and_frames.frame.8.width=320
312 packets_and_frames.frame.8.height=240
313 packets_and_frames.frame.8.pix_fmt="rgb24"
314 packets_and_frames.frame.8.sample_aspect_ratio="1:1"
315 packets_and_frames.frame.8.pict_type="I"
316 packets_and_frames.frame.8.coded_picture_number=0
317 packets_and_frames.frame.8.display_picture_number=0
318 packets_and_frames.frame.8.interlaced_frame=0
319 packets_and_frames.frame.8.top_field_first=0
320 packets_and_frames.frame.8.repeat_pict=0
321 packets_and_frames.frame.8.color_range="unknown"
322 packets_and_frames.frame.8.color_space="unknown"
323 packets_and_frames.frame.8.color_primaries="unknown"
324 packets_and_frames.frame.8.color_transfer="unknown"
325 packets_and_frames.frame.8.chroma_location="unspecified"
326 packets_and_frames.packet.9.codec_type="video"
327 packets_and_frames.packet.9.stream_index=2
328 packets_and_frames.packet.9.pts=4096
329 packets_and_frames.packet.9.pts_time="0.080000"
330 packets_and_frames.packet.9.dts=4096
331 packets_and_frames.packet.9.dts_time="0.080000"
332 packets_and_frames.packet.9.duration=2048
333 packets_and_frames.packet.9.duration_time="0.040000"
334 packets_and_frames.packet.9.convergence_duration="N/A"
335 packets_and_frames.packet.9.convergence_duration_time="N/A"
336 packets_and_frames.packet.9.size="30000"
337 packets_and_frames.packet.9.pos="760228"
338 packets_and_frames.packet.9.flags="K_"
339 packets_and_frames.frame.9.media_type="video"
340 packets_and_frames.frame.9.stream_index=2
341 packets_and_frames.frame.9.key_frame=1
342 packets_and_frames.frame.9.pkt_pts=4096
343 packets_and_frames.frame.9.pkt_pts_time="0.080000"
344 packets_and_frames.frame.9.pkt_dts=4096
345 packets_and_frames.frame.9.pkt_dts_time="0.080000"
346 packets_and_frames.frame.9.best_effort_timestamp=4096
347 packets_and_frames.frame.9.best_effort_timestamp_time="0.080000"
348 packets_and_frames.frame.9.pkt_duration=2048
349 packets_and_frames.frame.9.pkt_duration_time="0.040000"
350 packets_and_frames.frame.9.pkt_pos="760228"
351 packets_and_frames.frame.9.pkt_size="30000"
352 packets_and_frames.frame.9.width=100
353 packets_and_frames.frame.9.height=100
354 packets_and_frames.frame.9.pix_fmt="rgb24"
355 packets_and_frames.frame.9.sample_aspect_ratio="1:1"
356 packets_and_frames.frame.9.pict_type="I"
357 packets_and_frames.frame.9.coded_picture_number=0
358 packets_and_frames.frame.9.display_picture_number=0
359 packets_and_frames.frame.9.interlaced_frame=0
360 packets_and_frames.frame.9.top_field_first=0
361 packets_and_frames.frame.9.repeat_pict=0
362 packets_and_frames.frame.9.color_range="unknown"
363 packets_and_frames.frame.9.color_space="unknown"
364 packets_and_frames.frame.9.color_primaries="unknown"
365 packets_and_frames.frame.9.color_transfer="unknown"
366 packets_and_frames.frame.9.chroma_location="unspecified"
367 packets_and_frames.packet.10.codec_type="audio"
368 packets_and_frames.packet.10.stream_index=0
369 packets_and_frames.packet.10.pts=4096
370 packets_and_frames.packet.10.pts_time="0.092880"
371 packets_and_frames.packet.10.dts=4096
372 packets_and_frames.packet.10.dts_time="0.092880"
373 packets_and_frames.packet.10.duration=1024
374 packets_and_frames.packet.10.duration_time="0.023220"
375 packets_and_frames.packet.10.convergence_duration="N/A"
376 packets_and_frames.packet.10.convergence_duration_time="N/A"
377 packets_and_frames.packet.10.size="2048"
378 packets_and_frames.packet.10.pos="790233"
379 packets_and_frames.packet.10.flags="K_"
380 packets_and_frames.frame.10.media_type="audio"
381 packets_and_frames.frame.10.stream_index=0
382 packets_and_frames.frame.10.key_frame=1
383 packets_and_frames.frame.10.pkt_pts=4096
384 packets_and_frames.frame.10.pkt_pts_time="0.092880"
385 packets_and_frames.frame.10.pkt_dts=4096
386 packets_and_frames.frame.10.pkt_dts_time="0.092880"
387 packets_and_frames.frame.10.best_effort_timestamp=4096
388 packets_and_frames.frame.10.best_effort_timestamp_time="0.092880"
389 packets_and_frames.frame.10.pkt_duration=1024
390 packets_and_frames.frame.10.pkt_duration_time="0.023220"
391 packets_and_frames.frame.10.pkt_pos="790233"
392 packets_and_frames.frame.10.pkt_size="2048"
393 packets_and_frames.frame.10.sample_fmt="s16"
394 packets_and_frames.frame.10.nb_samples=1024
395 packets_and_frames.frame.10.channels=1
396 packets_and_frames.frame.10.channel_layout="unknown"
397 packets_and_frames.packet.11.codec_type="audio"
398 packets_and_frames.packet.11.stream_index=0
399 packets_and_frames.packet.11.pts=5120
400 packets_and_frames.packet.11.pts_time="0.116100"
401 packets_and_frames.packet.11.dts=5120
402 packets_and_frames.packet.11.dts_time="0.116100"
403 packets_and_frames.packet.11.duration=393
404 packets_and_frames.packet.11.duration_time="0.008912"
405 packets_and_frames.packet.11.convergence_duration="N/A"
406 packets_and_frames.packet.11.convergence_duration_time="N/A"
407 packets_and_frames.packet.11.size="786"
408 packets_and_frames.packet.11.pos="792304"
409 packets_and_frames.packet.11.flags="K_"
410 packets_and_frames.frame.11.media_type="audio"
411 packets_and_frames.frame.11.stream_index=0
412 packets_and_frames.frame.11.key_frame=1
413 packets_and_frames.frame.11.pkt_pts=5120
414 packets_and_frames.frame.11.pkt_pts_time="0.116100"
415 packets_and_frames.frame.11.pkt_dts=5120
416 packets_and_frames.frame.11.pkt_dts_time="0.116100"
417 packets_and_frames.frame.11.best_effort_timestamp=5120
418 packets_and_frames.frame.11.best_effort_timestamp_time="0.116100"
419 packets_and_frames.frame.11.pkt_duration=393
420 packets_and_frames.frame.11.pkt_duration_time="0.008912"
421 packets_and_frames.frame.11.pkt_pos="792304"
422 packets_and_frames.frame.11.pkt_size="786"
423 packets_and_frames.frame.11.sample_fmt="s16"
424 packets_and_frames.frame.11.nb_samples=393
425 packets_and_frames.frame.11.channels=1
426 packets_and_frames.frame.11.channel_layout="unknown"
427 packets_and_frames.packet.12.codec_type="video"
428 packets_and_frames.packet.12.stream_index=1
429 packets_and_frames.packet.12.pts=6144
430 packets_and_frames.packet.12.pts_time="0.120000"
431 packets_and_frames.packet.12.dts=6144
432 packets_and_frames.packet.12.dts_time="0.120000"
433 packets_and_frames.packet.12.duration=2048
434 packets_and_frames.packet.12.duration_time="0.040000"
435 packets_and_frames.packet.12.convergence_duration="N/A"
436 packets_and_frames.packet.12.convergence_duration_time="N/A"
437 packets_and_frames.packet.12.size="230400"
438 packets_and_frames.packet.12.pos="793120"
439 packets_and_frames.packet.12.flags="K_"
440 packets_and_frames.frame.12.media_type="video"
441 packets_and_frames.frame.12.stream_index=1
442 packets_and_frames.frame.12.key_frame=1
443 packets_and_frames.frame.12.pkt_pts=6144
444 packets_and_frames.frame.12.pkt_pts_time="0.120000"
445 packets_and_frames.frame.12.pkt_dts=6144
446 packets_and_frames.frame.12.pkt_dts_time="0.120000"
447 packets_and_frames.frame.12.best_effort_timestamp=6144
448 packets_and_frames.frame.12.best_effort_timestamp_time="0.120000"
449 packets_and_frames.frame.12.pkt_duration=2048
450 packets_and_frames.frame.12.pkt_duration_time="0.040000"
451 packets_and_frames.frame.12.pkt_pos="793120"
452 packets_and_frames.frame.12.pkt_size="230400"
453 packets_and_frames.frame.12.width=320
454 packets_and_frames.frame.12.height=240
455 packets_and_frames.frame.12.pix_fmt="rgb24"
456 packets_and_frames.frame.12.sample_aspect_ratio="1:1"
457 packets_and_frames.frame.12.pict_type="I"
458 packets_and_frames.frame.12.coded_picture_number=0
459 packets_and_frames.frame.12.display_picture_number=0
460 packets_and_frames.frame.12.interlaced_frame=0
461 packets_and_frames.frame.12.top_field_first=0
462 packets_and_frames.frame.12.repeat_pict=0
463 packets_and_frames.frame.12.color_range="unknown"
464 packets_and_frames.frame.12.color_space="unknown"
465 packets_and_frames.frame.12.color_primaries="unknown"
466 packets_and_frames.frame.12.color_transfer="unknown"
467 packets_and_frames.frame.12.chroma_location="unspecified"
468 packets_and_frames.packet.13.codec_type="video"
469 packets_and_frames.packet.13.stream_index=2
470 packets_and_frames.packet.13.pts=6144
471 packets_and_frames.packet.13.pts_time="0.120000"
472 packets_and_frames.packet.13.dts=6144
473 packets_and_frames.packet.13.dts_time="0.120000"
474 packets_and_frames.packet.13.duration=2048
475 packets_and_frames.packet.13.duration_time="0.040000"
476 packets_and_frames.packet.13.convergence_duration="N/A"
477 packets_and_frames.packet.13.convergence_duration_time="N/A"
478 packets_and_frames.packet.13.size="30000"
479 packets_and_frames.packet.13.pos="1023544"
480 packets_and_frames.packet.13.flags="K_"
481 packets_and_frames.frame.13.media_type="video"
482 packets_and_frames.frame.13.stream_index=2
483 packets_and_frames.frame.13.key_frame=1
484 packets_and_frames.frame.13.pkt_pts=6144
485 packets_and_frames.frame.13.pkt_pts_time="0.120000"
486 packets_and_frames.frame.13.pkt_dts=6144
487 packets_and_frames.frame.13.pkt_dts_time="0.120000"
488 packets_and_frames.frame.13.best_effort_timestamp=6144
489 packets_and_frames.frame.13.best_effort_timestamp_time="0.120000"
490 packets_and_frames.frame.13.pkt_duration=2048
491 packets_and_frames.frame.13.pkt_duration_time="0.040000"
492 packets_and_frames.frame.13.pkt_pos="1023544"
493 packets_and_frames.frame.13.pkt_size="30000"
494 packets_and_frames.frame.13.width=100
495 packets_and_frames.frame.13.height=100
496 packets_and_frames.frame.13.pix_fmt="rgb24"
497 packets_and_frames.frame.13.sample_aspect_ratio="1:1"
498 packets_and_frames.frame.13.pict_type="I"
499 packets_and_frames.frame.13.coded_picture_number=0
500 packets_and_frames.frame.13.display_picture_number=0
501 packets_and_frames.frame.13.interlaced_frame=0
502 packets_and_frames.frame.13.top_field_first=0
503 packets_and_frames.frame.13.repeat_pict=0
504 packets_and_frames.frame.13.color_range="unknown"
505 packets_and_frames.frame.13.color_space="unknown"
506 packets_and_frames.frame.13.color_primaries="unknown"
507 packets_and_frames.frame.13.color_transfer="unknown"
508 packets_and_frames.frame.13.chroma_location="unspecified"
509 streams.stream.0.index=0
510 streams.stream.0.codec_name="pcm_s16le"
511 streams.stream.0.profile="unknown"
512 streams.stream.0.codec_type="audio"
513 streams.stream.0.codec_time_base="1/44100"
514 streams.stream.0.codec_tag_string="PSD[16]"
515 streams.stream.0.codec_tag="0x10445350"
516 streams.stream.0.sample_fmt="s16"
517 streams.stream.0.sample_rate="44100"
518 streams.stream.0.channels=1
519 streams.stream.0.channel_layout="unknown"
520 streams.stream.0.bits_per_sample=16
521 streams.stream.0.id="N/A"
522 streams.stream.0.r_frame_rate="0/0"
523 streams.stream.0.avg_frame_rate="0/0"
524 streams.stream.0.time_base="1/44100"
525 streams.stream.0.start_pts=0
526 streams.stream.0.start_time="0.000000"
527 streams.stream.0.duration_ts="N/A"
528 streams.stream.0.duration="N/A"
529 streams.stream.0.bit_rate="705600"
530 streams.stream.0.max_bit_rate="N/A"
531 streams.stream.0.bits_per_raw_sample="N/A"
532 streams.stream.0.nb_frames="N/A"
533 streams.stream.0.nb_read_frames="6"
534 streams.stream.0.nb_read_packets="6"
535 streams.stream.0.disposition.default=0
536 streams.stream.0.disposition.dub=0
537 streams.stream.0.disposition.original=0
538 streams.stream.0.disposition.comment=0
539 streams.stream.0.disposition.lyrics=0
540 streams.stream.0.disposition.karaoke=0
541 streams.stream.0.disposition.forced=0
542 streams.stream.0.disposition.hearing_impaired=0
543 streams.stream.0.disposition.visual_impaired=0
544 streams.stream.0.disposition.clean_effects=0
545 streams.stream.0.disposition.attached_pic=0
546 streams.stream.0.disposition.timed_thumbnails=0
547 streams.stream.0.tags.E="mc²"
548 streams.stream.0.tags.encoder="Lavc pcm_s16le"
549 streams.stream.1.index=1
550 streams.stream.1.codec_name="rawvideo"
551 streams.stream.1.profile="unknown"
552 streams.stream.1.codec_type="video"
553 streams.stream.1.codec_time_base="1/25"
554 streams.stream.1.codec_tag_string="RGB[24]"
555 streams.stream.1.codec_tag="0x18424752"
556 streams.stream.1.width=320
557 streams.stream.1.height=240
558 streams.stream.1.coded_width=320
559 streams.stream.1.coded_height=240
560 streams.stream.1.has_b_frames=0
561 streams.stream.1.sample_aspect_ratio="1:1"
562 streams.stream.1.display_aspect_ratio="4:3"
563 streams.stream.1.pix_fmt="rgb24"
564 streams.stream.1.level=-99
565 streams.stream.1.color_range="N/A"
566 streams.stream.1.color_space="unknown"
567 streams.stream.1.color_transfer="unknown"
568 streams.stream.1.color_primaries="unknown"
569 streams.stream.1.chroma_location="unspecified"
570 streams.stream.1.field_order="unknown"
571 streams.stream.1.timecode="N/A"
572 streams.stream.1.refs=1
573 streams.stream.1.id="N/A"
574 streams.stream.1.r_frame_rate="25/1"
575 streams.stream.1.avg_frame_rate="25/1"
576 streams.stream.1.time_base="1/51200"
577 streams.stream.1.start_pts=0
578 streams.stream.1.start_time="0.000000"
579 streams.stream.1.duration_ts="N/A"
580 streams.stream.1.duration="N/A"
581 streams.stream.1.bit_rate="N/A"
582 streams.stream.1.max_bit_rate="N/A"
583 streams.stream.1.bits_per_raw_sample="N/A"
584 streams.stream.1.nb_frames="N/A"
585 streams.stream.1.nb_read_frames="4"
586 streams.stream.1.nb_read_packets="4"
587 streams.stream.1.disposition.default=0
588 streams.stream.1.disposition.dub=0
589 streams.stream.1.disposition.original=0
590 streams.stream.1.disposition.comment=0
591 streams.stream.1.disposition.lyrics=0
592 streams.stream.1.disposition.karaoke=0
593 streams.stream.1.disposition.forced=0
594 streams.stream.1.disposition.hearing_impaired=0
595 streams.stream.1.disposition.visual_impaired=0
596 streams.stream.1.disposition.clean_effects=0
597 streams.stream.1.disposition.attached_pic=0
598 streams.stream.1.disposition.timed_thumbnails=0
599 streams.stream.1.tags.title="foobar"
600 streams.stream.1.tags.duration_ts="field-and-tags-conflict-attempt"
601 streams.stream.1.tags.encoder="Lavc rawvideo"
602 streams.stream.2.index=2
603 streams.stream.2.codec_name="rawvideo"
604 streams.stream.2.profile="unknown"
605 streams.stream.2.codec_type="video"
606 streams.stream.2.codec_time_base="1/25"
607 streams.stream.2.codec_tag_string="RGB[24]"
608 streams.stream.2.codec_tag="0x18424752"
609 streams.stream.2.width=100
610 streams.stream.2.height=100
611 streams.stream.2.coded_width=100
612 streams.stream.2.coded_height=100
613 streams.stream.2.has_b_frames=0
614 streams.stream.2.sample_aspect_ratio="1:1"
615 streams.stream.2.display_aspect_ratio="1:1"
616 streams.stream.2.pix_fmt="rgb24"
617 streams.stream.2.level=-99
618 streams.stream.2.color_range="N/A"
619 streams.stream.2.color_space="unknown"
620 streams.stream.2.color_transfer="unknown"
621 streams.stream.2.color_primaries="unknown"
622 streams.stream.2.chroma_location="unspecified"
623 streams.stream.2.field_order="unknown"
624 streams.stream.2.timecode="N/A"
625 streams.stream.2.refs=1
626 streams.stream.2.id="N/A"
627 streams.stream.2.r_frame_rate="25/1"
628 streams.stream.2.avg_frame_rate="25/1"
629 streams.stream.2.time_base="1/51200"
630 streams.stream.2.start_pts=0
631 streams.stream.2.start_time="0.000000"
632 streams.stream.2.duration_ts="N/A"
633 streams.stream.2.duration="N/A"
634 streams.stream.2.bit_rate="N/A"
635 streams.stream.2.max_bit_rate="N/A"
636 streams.stream.2.bits_per_raw_sample="N/A"
637 streams.stream.2.nb_frames="N/A"
638 streams.stream.2.nb_read_frames="4"
639 streams.stream.2.nb_read_packets="4"
640 streams.stream.2.disposition.default=0
641 streams.stream.2.disposition.dub=0
642 streams.stream.2.disposition.original=0
643 streams.stream.2.disposition.comment=0
644 streams.stream.2.disposition.lyrics=0
645 streams.stream.2.disposition.karaoke=0
646 streams.stream.2.disposition.forced=0
647 streams.stream.2.disposition.hearing_impaired=0
648 streams.stream.2.disposition.visual_impaired=0
649 streams.stream.2.disposition.clean_effects=0
650 streams.stream.2.disposition.attached_pic=0
651 streams.stream.2.disposition.timed_thumbnails=0
652 streams.stream.2.tags.encoder="Lavc rawvideo"
653 format.filename="tests/data/ffprobe-test.nut"
654 format.nb_streams=3
655 format.nb_programs=0
656 format.format_name="nut"
657 format.start_time="0.000000"
658 format.duration="0.120000"
659 format.size="1053624"
660 format.bit_rate="70241600"
661 format.probe_score=100
662 format.tags.title="ffprobe test file"
663 format.tags.comment="'A comment with CSV, XML & JSON special chars': <tag value=\"x\">"
664 format.tags.comment2="I ♥ Üñîçød€"