493c976093e1dc8dca6ea245654d605fac21cac4
[ffmpeg.git] / tests / ref / fate / ffprobe_flat
1 packets_and_frames.packet.0.codec_type="audio"
2 packets_and_frames.packet.0.stream_index=0
3 packets_and_frames.packet.0.pts=0
4 packets_and_frames.packet.0.pts_time="0.000000"
5 packets_and_frames.packet.0.dts=0
6 packets_and_frames.packet.0.dts_time="0.000000"
7 packets_and_frames.packet.0.duration=1024
8 packets_and_frames.packet.0.duration_time="0.023220"
9 packets_and_frames.packet.0.convergence_duration="N/A"
10 packets_and_frames.packet.0.convergence_duration_time="N/A"
11 packets_and_frames.packet.0.size="2048"
12 packets_and_frames.packet.0.pos="487"
13 packets_and_frames.packet.0.flags="K"
14 packets_and_frames.frame.0.media_type="audio"
15 packets_and_frames.frame.0.key_frame=1
16 packets_and_frames.frame.0.pkt_pts=0
17 packets_and_frames.frame.0.pkt_pts_time="0.000000"
18 packets_and_frames.frame.0.pkt_dts=0
19 packets_and_frames.frame.0.pkt_dts_time="0.000000"
20 packets_and_frames.frame.0.pkt_duration=1024
21 packets_and_frames.frame.0.pkt_duration_time="0.023220"
22 packets_and_frames.frame.0.pkt_pos="487"
23 packets_and_frames.frame.0.sample_fmt="s16"
24 packets_and_frames.frame.0.nb_samples=1024
25 packets_and_frames.frame.0.channels=1
26 packets_and_frames.frame.0.channel_layout="unknown"
27 packets_and_frames.packet.1.codec_type="video"
28 packets_and_frames.packet.1.stream_index=1
29 packets_and_frames.packet.1.pts=0
30 packets_and_frames.packet.1.pts_time="0.000000"
31 packets_and_frames.packet.1.dts=0
32 packets_and_frames.packet.1.dts_time="0.000000"
33 packets_and_frames.packet.1.duration=2048
34 packets_and_frames.packet.1.duration_time="0.040000"
35 packets_and_frames.packet.1.convergence_duration="N/A"
36 packets_and_frames.packet.1.convergence_duration_time="N/A"
37 packets_and_frames.packet.1.size="230400"
38 packets_and_frames.packet.1.pos="2562"
39 packets_and_frames.packet.1.flags="K"
40 packets_and_frames.frame.1.media_type="video"
41 packets_and_frames.frame.1.key_frame=1
42 packets_and_frames.frame.1.pkt_pts=0
43 packets_and_frames.frame.1.pkt_pts_time="0.000000"
44 packets_and_frames.frame.1.pkt_dts=0
45 packets_and_frames.frame.1.pkt_dts_time="0.000000"
46 packets_and_frames.frame.1.pkt_duration=2048
47 packets_and_frames.frame.1.pkt_duration_time="0.040000"
48 packets_and_frames.frame.1.pkt_pos="2562"
49 packets_and_frames.frame.1.width=320
50 packets_and_frames.frame.1.height=240
51 packets_and_frames.frame.1.pix_fmt="rgb24"
52 packets_and_frames.frame.1.sample_aspect_ratio="1:1"
53 packets_and_frames.frame.1.pict_type="I"
54 packets_and_frames.frame.1.coded_picture_number=0
55 packets_and_frames.frame.1.display_picture_number=0
56 packets_and_frames.frame.1.interlaced_frame=0
57 packets_and_frames.frame.1.top_field_first=0
58 packets_and_frames.frame.1.repeat_pict=0
59 packets_and_frames.frame.1.reference=0
60 packets_and_frames.packet.2.codec_type="video"
61 packets_and_frames.packet.2.stream_index=2
62 packets_and_frames.packet.2.pts=0
63 packets_and_frames.packet.2.pts_time="0.000000"
64 packets_and_frames.packet.2.dts=0
65 packets_and_frames.packet.2.dts_time="0.000000"
66 packets_and_frames.packet.2.duration=2048
67 packets_and_frames.packet.2.duration_time="0.040000"
68 packets_and_frames.packet.2.convergence_duration="N/A"
69 packets_and_frames.packet.2.convergence_duration_time="N/A"
70 packets_and_frames.packet.2.size="30000"
71 packets_and_frames.packet.2.pos="232983"
72 packets_and_frames.packet.2.flags="K"
73 packets_and_frames.frame.2.media_type="video"
74 packets_and_frames.frame.2.key_frame=1
75 packets_and_frames.frame.2.pkt_pts=0
76 packets_and_frames.frame.2.pkt_pts_time="0.000000"
77 packets_and_frames.frame.2.pkt_dts=0
78 packets_and_frames.frame.2.pkt_dts_time="0.000000"
79 packets_and_frames.frame.2.pkt_duration=2048
80 packets_and_frames.frame.2.pkt_duration_time="0.040000"
81 packets_and_frames.frame.2.pkt_pos="232983"
82 packets_and_frames.frame.2.width=100
83 packets_and_frames.frame.2.height=100
84 packets_and_frames.frame.2.pix_fmt="rgb24"
85 packets_and_frames.frame.2.sample_aspect_ratio="1:1"
86 packets_and_frames.frame.2.pict_type="I"
87 packets_and_frames.frame.2.coded_picture_number=0
88 packets_and_frames.frame.2.display_picture_number=0
89 packets_and_frames.frame.2.interlaced_frame=0
90 packets_and_frames.frame.2.top_field_first=0
91 packets_and_frames.frame.2.repeat_pict=0
92 packets_and_frames.frame.2.reference=0
93 packets_and_frames.packet.3.codec_type="audio"
94 packets_and_frames.packet.3.stream_index=0
95 packets_and_frames.packet.3.pts=1024
96 packets_and_frames.packet.3.pts_time="0.023220"
97 packets_and_frames.packet.3.dts=1024
98 packets_and_frames.packet.3.dts_time="0.023220"
99 packets_and_frames.packet.3.duration=1024
100 packets_and_frames.packet.3.duration_time="0.023220"
101 packets_and_frames.packet.3.convergence_duration="N/A"
102 packets_and_frames.packet.3.convergence_duration_time="N/A"
103 packets_and_frames.packet.3.size="2048"
104 packets_and_frames.packet.3.pos="262988"
105 packets_and_frames.packet.3.flags="K"
106 packets_and_frames.frame.3.media_type="audio"
107 packets_and_frames.frame.3.key_frame=1
108 packets_and_frames.frame.3.pkt_pts=1024
109 packets_and_frames.frame.3.pkt_pts_time="0.023220"
110 packets_and_frames.frame.3.pkt_dts=1024
111 packets_and_frames.frame.3.pkt_dts_time="0.023220"
112 packets_and_frames.frame.3.pkt_duration=1024
113 packets_and_frames.frame.3.pkt_duration_time="0.023220"
114 packets_and_frames.frame.3.pkt_pos="262988"
115 packets_and_frames.frame.3.sample_fmt="s16"
116 packets_and_frames.frame.3.nb_samples=1024
117 packets_and_frames.frame.3.channels=1
118 packets_and_frames.frame.3.channel_layout="unknown"
119 packets_and_frames.packet.4.codec_type="video"
120 packets_and_frames.packet.4.stream_index=1
121 packets_and_frames.packet.4.pts=2048
122 packets_and_frames.packet.4.pts_time="0.040000"
123 packets_and_frames.packet.4.dts=2048
124 packets_and_frames.packet.4.dts_time="0.040000"
125 packets_and_frames.packet.4.duration=2048
126 packets_and_frames.packet.4.duration_time="0.040000"
127 packets_and_frames.packet.4.convergence_duration="N/A"
128 packets_and_frames.packet.4.convergence_duration_time="N/A"
129 packets_and_frames.packet.4.size="230400"
130 packets_and_frames.packet.4.pos="265066"
131 packets_and_frames.packet.4.flags="K"
132 packets_and_frames.frame.4.media_type="video"
133 packets_and_frames.frame.4.key_frame=1
134 packets_and_frames.frame.4.pkt_pts=2048
135 packets_and_frames.frame.4.pkt_pts_time="0.040000"
136 packets_and_frames.frame.4.pkt_dts=2048
137 packets_and_frames.frame.4.pkt_dts_time="0.040000"
138 packets_and_frames.frame.4.pkt_duration=2048
139 packets_and_frames.frame.4.pkt_duration_time="0.040000"
140 packets_and_frames.frame.4.pkt_pos="265066"
141 packets_and_frames.frame.4.width=320
142 packets_and_frames.frame.4.height=240
143 packets_and_frames.frame.4.pix_fmt="rgb24"
144 packets_and_frames.frame.4.sample_aspect_ratio="1:1"
145 packets_and_frames.frame.4.pict_type="I"
146 packets_and_frames.frame.4.coded_picture_number=0
147 packets_and_frames.frame.4.display_picture_number=0
148 packets_and_frames.frame.4.interlaced_frame=0
149 packets_and_frames.frame.4.top_field_first=0
150 packets_and_frames.frame.4.repeat_pict=0
151 packets_and_frames.frame.4.reference=0
152 packets_and_frames.packet.5.codec_type="video"
153 packets_and_frames.packet.5.stream_index=2
154 packets_and_frames.packet.5.pts=2048
155 packets_and_frames.packet.5.pts_time="0.040000"
156 packets_and_frames.packet.5.dts=2048
157 packets_and_frames.packet.5.dts_time="0.040000"
158 packets_and_frames.packet.5.duration=2048
159 packets_and_frames.packet.5.duration_time="0.040000"
160 packets_and_frames.packet.5.convergence_duration="N/A"
161 packets_and_frames.packet.5.convergence_duration_time="N/A"
162 packets_and_frames.packet.5.size="30000"
163 packets_and_frames.packet.5.pos="495490"
164 packets_and_frames.packet.5.flags="K"
165 packets_and_frames.frame.5.media_type="video"
166 packets_and_frames.frame.5.key_frame=1
167 packets_and_frames.frame.5.pkt_pts=2048
168 packets_and_frames.frame.5.pkt_pts_time="0.040000"
169 packets_and_frames.frame.5.pkt_dts=2048
170 packets_and_frames.frame.5.pkt_dts_time="0.040000"
171 packets_and_frames.frame.5.pkt_duration=2048
172 packets_and_frames.frame.5.pkt_duration_time="0.040000"
173 packets_and_frames.frame.5.pkt_pos="495490"
174 packets_and_frames.frame.5.width=100
175 packets_and_frames.frame.5.height=100
176 packets_and_frames.frame.5.pix_fmt="rgb24"
177 packets_and_frames.frame.5.sample_aspect_ratio="1:1"
178 packets_and_frames.frame.5.pict_type="I"
179 packets_and_frames.frame.5.coded_picture_number=0
180 packets_and_frames.frame.5.display_picture_number=0
181 packets_and_frames.frame.5.interlaced_frame=0
182 packets_and_frames.frame.5.top_field_first=0
183 packets_and_frames.frame.5.repeat_pict=0
184 packets_and_frames.frame.5.reference=0
185 packets_and_frames.packet.6.codec_type="audio"
186 packets_and_frames.packet.6.stream_index=0
187 packets_and_frames.packet.6.pts=2048
188 packets_and_frames.packet.6.pts_time="0.046440"
189 packets_and_frames.packet.6.dts=2048
190 packets_and_frames.packet.6.dts_time="0.046440"
191 packets_and_frames.packet.6.duration=1024
192 packets_and_frames.packet.6.duration_time="0.023220"
193 packets_and_frames.packet.6.convergence_duration="N/A"
194 packets_and_frames.packet.6.convergence_duration_time="N/A"
195 packets_and_frames.packet.6.size="2048"
196 packets_and_frames.packet.6.pos="525495"
197 packets_and_frames.packet.6.flags="K"
198 packets_and_frames.frame.6.media_type="audio"
199 packets_and_frames.frame.6.key_frame=1
200 packets_and_frames.frame.6.pkt_pts=2048
201 packets_and_frames.frame.6.pkt_pts_time="0.046440"
202 packets_and_frames.frame.6.pkt_dts=2048
203 packets_and_frames.frame.6.pkt_dts_time="0.046440"
204 packets_and_frames.frame.6.pkt_duration=1024
205 packets_and_frames.frame.6.pkt_duration_time="0.023220"
206 packets_and_frames.frame.6.pkt_pos="525495"
207 packets_and_frames.frame.6.sample_fmt="s16"
208 packets_and_frames.frame.6.nb_samples=1024
209 packets_and_frames.frame.6.channels=1
210 packets_and_frames.frame.6.channel_layout="unknown"
211 packets_and_frames.packet.7.codec_type="audio"
212 packets_and_frames.packet.7.stream_index=0
213 packets_and_frames.packet.7.pts=3072
214 packets_and_frames.packet.7.pts_time="0.069660"
215 packets_and_frames.packet.7.dts=3072
216 packets_and_frames.packet.7.dts_time="0.069660"
217 packets_and_frames.packet.7.duration=1024
218 packets_and_frames.packet.7.duration_time="0.023220"
219 packets_and_frames.packet.7.convergence_duration="N/A"
220 packets_and_frames.packet.7.convergence_duration_time="N/A"
221 packets_and_frames.packet.7.size="2048"
222 packets_and_frames.packet.7.pos="527566"
223 packets_and_frames.packet.7.flags="K"
224 packets_and_frames.frame.7.media_type="audio"
225 packets_and_frames.frame.7.key_frame=1
226 packets_and_frames.frame.7.pkt_pts=3072
227 packets_and_frames.frame.7.pkt_pts_time="0.069660"
228 packets_and_frames.frame.7.pkt_dts=3072
229 packets_and_frames.frame.7.pkt_dts_time="0.069660"
230 packets_and_frames.frame.7.pkt_duration=1024
231 packets_and_frames.frame.7.pkt_duration_time="0.023220"
232 packets_and_frames.frame.7.pkt_pos="527566"
233 packets_and_frames.frame.7.sample_fmt="s16"
234 packets_and_frames.frame.7.nb_samples=1024
235 packets_and_frames.frame.7.channels=1
236 packets_and_frames.frame.7.channel_layout="unknown"
237 packets_and_frames.packet.8.codec_type="video"
238 packets_and_frames.packet.8.stream_index=1
239 packets_and_frames.packet.8.pts=4096
240 packets_and_frames.packet.8.pts_time="0.080000"
241 packets_and_frames.packet.8.dts=4096
242 packets_and_frames.packet.8.dts_time="0.080000"
243 packets_and_frames.packet.8.duration=2048
244 packets_and_frames.packet.8.duration_time="0.040000"
245 packets_and_frames.packet.8.convergence_duration="N/A"
246 packets_and_frames.packet.8.convergence_duration_time="N/A"
247 packets_and_frames.packet.8.size="230400"
248 packets_and_frames.packet.8.pos="529644"
249 packets_and_frames.packet.8.flags="K"
250 packets_and_frames.frame.8.media_type="video"
251 packets_and_frames.frame.8.key_frame=1
252 packets_and_frames.frame.8.pkt_pts=4096
253 packets_and_frames.frame.8.pkt_pts_time="0.080000"
254 packets_and_frames.frame.8.pkt_dts=4096
255 packets_and_frames.frame.8.pkt_dts_time="0.080000"
256 packets_and_frames.frame.8.pkt_duration=2048
257 packets_and_frames.frame.8.pkt_duration_time="0.040000"
258 packets_and_frames.frame.8.pkt_pos="529644"
259 packets_and_frames.frame.8.width=320
260 packets_and_frames.frame.8.height=240
261 packets_and_frames.frame.8.pix_fmt="rgb24"
262 packets_and_frames.frame.8.sample_aspect_ratio="1:1"
263 packets_and_frames.frame.8.pict_type="I"
264 packets_and_frames.frame.8.coded_picture_number=0
265 packets_and_frames.frame.8.display_picture_number=0
266 packets_and_frames.frame.8.interlaced_frame=0
267 packets_and_frames.frame.8.top_field_first=0
268 packets_and_frames.frame.8.repeat_pict=0
269 packets_and_frames.frame.8.reference=0
270 packets_and_frames.packet.9.codec_type="video"
271 packets_and_frames.packet.9.stream_index=2
272 packets_and_frames.packet.9.pts=4096
273 packets_and_frames.packet.9.pts_time="0.080000"
274 packets_and_frames.packet.9.dts=4096
275 packets_and_frames.packet.9.dts_time="0.080000"
276 packets_and_frames.packet.9.duration=2048
277 packets_and_frames.packet.9.duration_time="0.040000"
278 packets_and_frames.packet.9.convergence_duration="N/A"
279 packets_and_frames.packet.9.convergence_duration_time="N/A"
280 packets_and_frames.packet.9.size="30000"
281 packets_and_frames.packet.9.pos="760068"
282 packets_and_frames.packet.9.flags="K"
283 packets_and_frames.frame.9.media_type="video"
284 packets_and_frames.frame.9.key_frame=1
285 packets_and_frames.frame.9.pkt_pts=4096
286 packets_and_frames.frame.9.pkt_pts_time="0.080000"
287 packets_and_frames.frame.9.pkt_dts=4096
288 packets_and_frames.frame.9.pkt_dts_time="0.080000"
289 packets_and_frames.frame.9.pkt_duration=2048
290 packets_and_frames.frame.9.pkt_duration_time="0.040000"
291 packets_and_frames.frame.9.pkt_pos="760068"
292 packets_and_frames.frame.9.width=100
293 packets_and_frames.frame.9.height=100
294 packets_and_frames.frame.9.pix_fmt="rgb24"
295 packets_and_frames.frame.9.sample_aspect_ratio="1:1"
296 packets_and_frames.frame.9.pict_type="I"
297 packets_and_frames.frame.9.coded_picture_number=0
298 packets_and_frames.frame.9.display_picture_number=0
299 packets_and_frames.frame.9.interlaced_frame=0
300 packets_and_frames.frame.9.top_field_first=0
301 packets_and_frames.frame.9.repeat_pict=0
302 packets_and_frames.frame.9.reference=0
303 packets_and_frames.packet.10.codec_type="audio"
304 packets_and_frames.packet.10.stream_index=0
305 packets_and_frames.packet.10.pts=4096
306 packets_and_frames.packet.10.pts_time="0.092880"
307 packets_and_frames.packet.10.dts=4096
308 packets_and_frames.packet.10.dts_time="0.092880"
309 packets_and_frames.packet.10.duration=1024
310 packets_and_frames.packet.10.duration_time="0.023220"
311 packets_and_frames.packet.10.convergence_duration="N/A"
312 packets_and_frames.packet.10.convergence_duration_time="N/A"
313 packets_and_frames.packet.10.size="2048"
314 packets_and_frames.packet.10.pos="790073"
315 packets_and_frames.packet.10.flags="K"
316 packets_and_frames.frame.10.media_type="audio"
317 packets_and_frames.frame.10.key_frame=1
318 packets_and_frames.frame.10.pkt_pts=4096
319 packets_and_frames.frame.10.pkt_pts_time="0.092880"
320 packets_and_frames.frame.10.pkt_dts=4096
321 packets_and_frames.frame.10.pkt_dts_time="0.092880"
322 packets_and_frames.frame.10.pkt_duration=1024
323 packets_and_frames.frame.10.pkt_duration_time="0.023220"
324 packets_and_frames.frame.10.pkt_pos="790073"
325 packets_and_frames.frame.10.sample_fmt="s16"
326 packets_and_frames.frame.10.nb_samples=1024
327 packets_and_frames.frame.10.channels=1
328 packets_and_frames.frame.10.channel_layout="unknown"
329 packets_and_frames.packet.11.codec_type="audio"
330 packets_and_frames.packet.11.stream_index=0
331 packets_and_frames.packet.11.pts=5120
332 packets_and_frames.packet.11.pts_time="0.116100"
333 packets_and_frames.packet.11.dts=5120
334 packets_and_frames.packet.11.dts_time="0.116100"
335 packets_and_frames.packet.11.duration=1024
336 packets_and_frames.packet.11.duration_time="0.023220"
337 packets_and_frames.packet.11.convergence_duration="N/A"
338 packets_and_frames.packet.11.convergence_duration_time="N/A"
339 packets_and_frames.packet.11.size="2048"
340 packets_and_frames.packet.11.pos="792144"
341 packets_and_frames.packet.11.flags="K"
342 packets_and_frames.frame.11.media_type="audio"
343 packets_and_frames.frame.11.key_frame=1
344 packets_and_frames.frame.11.pkt_pts=5120
345 packets_and_frames.frame.11.pkt_pts_time="0.116100"
346 packets_and_frames.frame.11.pkt_dts=5120
347 packets_and_frames.frame.11.pkt_dts_time="0.116100"
348 packets_and_frames.frame.11.pkt_duration=1024
349 packets_and_frames.frame.11.pkt_duration_time="0.023220"
350 packets_and_frames.frame.11.pkt_pos="792144"
351 packets_and_frames.frame.11.sample_fmt="s16"
352 packets_and_frames.frame.11.nb_samples=1024
353 packets_and_frames.frame.11.channels=1
354 packets_and_frames.frame.11.channel_layout="unknown"
355 packets_and_frames.packet.12.codec_type="video"
356 packets_and_frames.packet.12.stream_index=1
357 packets_and_frames.packet.12.pts=6144
358 packets_and_frames.packet.12.pts_time="0.120000"
359 packets_and_frames.packet.12.dts=6144
360 packets_and_frames.packet.12.dts_time="0.120000"
361 packets_and_frames.packet.12.duration=2048
362 packets_and_frames.packet.12.duration_time="0.040000"
363 packets_and_frames.packet.12.convergence_duration="N/A"
364 packets_and_frames.packet.12.convergence_duration_time="N/A"
365 packets_and_frames.packet.12.size="230400"
366 packets_and_frames.packet.12.pos="794222"
367 packets_and_frames.packet.12.flags="K"
368 packets_and_frames.frame.12.media_type="video"
369 packets_and_frames.frame.12.key_frame=1
370 packets_and_frames.frame.12.pkt_pts=6144
371 packets_and_frames.frame.12.pkt_pts_time="0.120000"
372 packets_and_frames.frame.12.pkt_dts=6144
373 packets_and_frames.frame.12.pkt_dts_time="0.120000"
374 packets_and_frames.frame.12.pkt_duration=2048
375 packets_and_frames.frame.12.pkt_duration_time="0.040000"
376 packets_and_frames.frame.12.pkt_pos="794222"
377 packets_and_frames.frame.12.width=320
378 packets_and_frames.frame.12.height=240
379 packets_and_frames.frame.12.pix_fmt="rgb24"
380 packets_and_frames.frame.12.sample_aspect_ratio="1:1"
381 packets_and_frames.frame.12.pict_type="I"
382 packets_and_frames.frame.12.coded_picture_number=0
383 packets_and_frames.frame.12.display_picture_number=0
384 packets_and_frames.frame.12.interlaced_frame=0
385 packets_and_frames.frame.12.top_field_first=0
386 packets_and_frames.frame.12.repeat_pict=0
387 packets_and_frames.frame.12.reference=0
388 packets_and_frames.packet.13.codec_type="video"
389 packets_and_frames.packet.13.stream_index=2
390 packets_and_frames.packet.13.pts=6144
391 packets_and_frames.packet.13.pts_time="0.120000"
392 packets_and_frames.packet.13.dts=6144
393 packets_and_frames.packet.13.dts_time="0.120000"
394 packets_and_frames.packet.13.duration=2048
395 packets_and_frames.packet.13.duration_time="0.040000"
396 packets_and_frames.packet.13.convergence_duration="N/A"
397 packets_and_frames.packet.13.convergence_duration_time="N/A"
398 packets_and_frames.packet.13.size="30000"
399 packets_and_frames.packet.13.pos="1024646"
400 packets_and_frames.packet.13.flags="K"
401 packets_and_frames.frame.13.media_type="video"
402 packets_and_frames.frame.13.key_frame=1
403 packets_and_frames.frame.13.pkt_pts=6144
404 packets_and_frames.frame.13.pkt_pts_time="0.120000"
405 packets_and_frames.frame.13.pkt_dts=6144
406 packets_and_frames.frame.13.pkt_dts_time="0.120000"
407 packets_and_frames.frame.13.pkt_duration=2048
408 packets_and_frames.frame.13.pkt_duration_time="0.040000"
409 packets_and_frames.frame.13.pkt_pos="1024646"
410 packets_and_frames.frame.13.width=100
411 packets_and_frames.frame.13.height=100
412 packets_and_frames.frame.13.pix_fmt="rgb24"
413 packets_and_frames.frame.13.sample_aspect_ratio="1:1"
414 packets_and_frames.frame.13.pict_type="I"
415 packets_and_frames.frame.13.coded_picture_number=0
416 packets_and_frames.frame.13.display_picture_number=0
417 packets_and_frames.frame.13.interlaced_frame=0
418 packets_and_frames.frame.13.top_field_first=0
419 packets_and_frames.frame.13.repeat_pict=0
420 packets_and_frames.frame.13.reference=0
421 streams.stream.0.index=0
422 streams.stream.0.codec_name="pcm_s16le"
423 streams.stream.0.profile="unknown"
424 streams.stream.0.codec_type="audio"
425 streams.stream.0.codec_time_base="1/44100"
426 streams.stream.0.codec_tag_string="[1][0][0][0]"
427 streams.stream.0.codec_tag="0x0001"
428 streams.stream.0.sample_fmt="s16"
429 streams.stream.0.sample_rate="44100"
430 streams.stream.0.channels=1
431 streams.stream.0.bits_per_sample=16
432 streams.stream.0.id="N/A"
433 streams.stream.0.r_frame_rate="0/0"
434 streams.stream.0.avg_frame_rate="0/0"
435 streams.stream.0.time_base="1/44100"
436 streams.stream.0.start_pts=0
437 streams.stream.0.start_time="0.000000"
438 streams.stream.0.duration_ts=527364
439 streams.stream.0.duration="11.958367"
440 streams.stream.0.bit_rate="705600"
441 streams.stream.0.nb_frames="N/A"
442 streams.stream.0.nb_read_frames="6"
443 streams.stream.0.nb_read_packets="6"
444 streams.stream.0.disposition.default=0
445 streams.stream.0.disposition.dub=0
446 streams.stream.0.disposition.original=0
447 streams.stream.0.disposition.comment=0
448 streams.stream.0.disposition.lyrics=0
449 streams.stream.0.disposition.karaoke=0
450 streams.stream.0.disposition.forced=0
451 streams.stream.0.disposition.hearing_impaired=0
452 streams.stream.0.disposition.visual_impaired=0
453 streams.stream.0.disposition.clean_effects=0
454 streams.stream.0.disposition.attached_pic=0
455 streams.stream.1.index=1
456 streams.stream.1.codec_name="rawvideo"
457 streams.stream.1.profile="unknown"
458 streams.stream.1.codec_type="video"
459 streams.stream.1.codec_time_base="1/51200"
460 streams.stream.1.codec_tag_string="RGB[24]"
461 streams.stream.1.codec_tag="0x18424752"
462 streams.stream.1.width=320
463 streams.stream.1.height=240
464 streams.stream.1.has_b_frames=0
465 streams.stream.1.sample_aspect_ratio="1:1"
466 streams.stream.1.display_aspect_ratio="4:3"
467 streams.stream.1.pix_fmt="rgb24"
468 streams.stream.1.level=-99
469 streams.stream.1.timecode="N/A"
470 streams.stream.1.id="N/A"
471 streams.stream.1.r_frame_rate="25/1"
472 streams.stream.1.avg_frame_rate="25/1"
473 streams.stream.1.time_base="1/51200"
474 streams.stream.1.start_pts=0
475 streams.stream.1.start_time="0.000000"
476 streams.stream.1.duration_ts=612268
477 streams.stream.1.duration="11.958359"
478 streams.stream.1.bit_rate="N/A"
479 streams.stream.1.nb_frames="N/A"
480 streams.stream.1.nb_read_frames="4"
481 streams.stream.1.nb_read_packets="4"
482 streams.stream.1.disposition.default=0
483 streams.stream.1.disposition.dub=0
484 streams.stream.1.disposition.original=0
485 streams.stream.1.disposition.comment=0
486 streams.stream.1.disposition.lyrics=0
487 streams.stream.1.disposition.karaoke=0
488 streams.stream.1.disposition.forced=0
489 streams.stream.1.disposition.hearing_impaired=0
490 streams.stream.1.disposition.visual_impaired=0
491 streams.stream.1.disposition.clean_effects=0
492 streams.stream.1.disposition.attached_pic=0
493 streams.stream.2.index=2
494 streams.stream.2.codec_name="rawvideo"
495 streams.stream.2.profile="unknown"
496 streams.stream.2.codec_type="video"
497 streams.stream.2.codec_time_base="1/51200"
498 streams.stream.2.codec_tag_string="RGB[24]"
499 streams.stream.2.codec_tag="0x18424752"
500 streams.stream.2.width=100
501 streams.stream.2.height=100
502 streams.stream.2.has_b_frames=0
503 streams.stream.2.sample_aspect_ratio="1:1"
504 streams.stream.2.display_aspect_ratio="1:1"
505 streams.stream.2.pix_fmt="rgb24"
506 streams.stream.2.level=-99
507 streams.stream.2.timecode="N/A"
508 streams.stream.2.id="N/A"
509 streams.stream.2.r_frame_rate="25/1"
510 streams.stream.2.avg_frame_rate="25/1"
511 streams.stream.2.time_base="1/51200"
512 streams.stream.2.start_pts=0
513 streams.stream.2.start_time="0.000000"
514 streams.stream.2.duration_ts=612268
515 streams.stream.2.duration="11.958359"
516 streams.stream.2.bit_rate="N/A"
517 streams.stream.2.nb_frames="N/A"
518 streams.stream.2.nb_read_frames="4"
519 streams.stream.2.nb_read_packets="4"
520 streams.stream.2.disposition.default=0
521 streams.stream.2.disposition.dub=0
522 streams.stream.2.disposition.original=0
523 streams.stream.2.disposition.comment=0
524 streams.stream.2.disposition.lyrics=0
525 streams.stream.2.disposition.karaoke=0
526 streams.stream.2.disposition.forced=0
527 streams.stream.2.disposition.hearing_impaired=0
528 streams.stream.2.disposition.visual_impaired=0
529 streams.stream.2.disposition.clean_effects=0
530 streams.stream.2.disposition.attached_pic=0
531 format.filename="tests/data/ffprobe-test.nut"
532 format.nb_streams=3
533 format.format_name="nut"
534 format.start_time="0.000000"
535 format.duration="11.958367"
536 format.size="1054727"
537 format.bit_rate="705599"
538 format.tags.title="ffprobe test file"
539 format.tags.comment="'A comment with CSV, XML & JSON special chars': <tag value=\"x\">"
540 format.tags.comment2="I ♥ Üñîçød€"