e29e4abe19df5eedd15bd5a980805b4e605c1823
[ffmpeg.git] / tests / ref / fate / ffprobe_default
1 [PACKET]
2 codec_type=audio
3 stream_index=0
4 pts=0
5 pts_time=0.000000
6 dts=0
7 dts_time=0.000000
8 duration=1024
9 duration_time=0.023220
10 convergence_duration=N/A
11 convergence_duration_time=N/A
12 size=2048
13 pos=642
14 flags=K
15 [/PACKET]
16 [FRAME]
17 media_type=audio
18 key_frame=1
19 pkt_pts=0
20 pkt_pts_time=0.000000
21 pkt_dts=0
22 pkt_dts_time=0.000000
23 best_effort_timestamp=0
24 best_effort_timestamp_time=0.000000
25 pkt_duration=1024
26 pkt_duration_time=0.023220
27 pkt_pos=642
28 pkt_size=2048
29 sample_fmt=s16
30 nb_samples=1024
31 channels=1
32 channel_layout=unknown
33 [/FRAME]
34 [PACKET]
35 codec_type=video
36 stream_index=1
37 pts=0
38 pts_time=0.000000
39 dts=0
40 dts_time=0.000000
41 duration=2048
42 duration_time=0.040000
43 convergence_duration=N/A
44 convergence_duration_time=N/A
45 size=230400
46 pos=2717
47 flags=K
48 [/PACKET]
49 [FRAME]
50 media_type=video
51 key_frame=1
52 pkt_pts=0
53 pkt_pts_time=0.000000
54 pkt_dts=0
55 pkt_dts_time=0.000000
56 best_effort_timestamp=0
57 best_effort_timestamp_time=0.000000
58 pkt_duration=2048
59 pkt_duration_time=0.040000
60 pkt_pos=2717
61 pkt_size=230400
62 width=320
63 height=240
64 pix_fmt=rgb24
65 sample_aspect_ratio=1:1
66 pict_type=I
67 coded_picture_number=0
68 display_picture_number=0
69 interlaced_frame=0
70 top_field_first=0
71 repeat_pict=0
72 [/FRAME]
73 [PACKET]
74 codec_type=video
75 stream_index=2
76 pts=0
77 pts_time=0.000000
78 dts=0
79 dts_time=0.000000
80 duration=2048
81 duration_time=0.040000
82 convergence_duration=N/A
83 convergence_duration_time=N/A
84 size=30000
85 pos=233138
86 flags=K
87 [/PACKET]
88 [FRAME]
89 media_type=video
90 key_frame=1
91 pkt_pts=0
92 pkt_pts_time=0.000000
93 pkt_dts=0
94 pkt_dts_time=0.000000
95 best_effort_timestamp=0
96 best_effort_timestamp_time=0.000000
97 pkt_duration=2048
98 pkt_duration_time=0.040000
99 pkt_pos=233138
100 pkt_size=30000
101 width=100
102 height=100
103 pix_fmt=rgb24
104 sample_aspect_ratio=1:1
105 pict_type=I
106 coded_picture_number=0
107 display_picture_number=0
108 interlaced_frame=0
109 top_field_first=0
110 repeat_pict=0
111 [/FRAME]
112 [PACKET]
113 codec_type=audio
114 stream_index=0
115 pts=1024
116 pts_time=0.023220
117 dts=1024
118 dts_time=0.023220
119 duration=1024
120 duration_time=0.023220
121 convergence_duration=N/A
122 convergence_duration_time=N/A
123 size=2048
124 pos=263143
125 flags=K
126 [/PACKET]
127 [FRAME]
128 media_type=audio
129 key_frame=1
130 pkt_pts=1024
131 pkt_pts_time=0.023220
132 pkt_dts=1024
133 pkt_dts_time=0.023220
134 best_effort_timestamp=1024
135 best_effort_timestamp_time=0.023220
136 pkt_duration=1024
137 pkt_duration_time=0.023220
138 pkt_pos=263143
139 pkt_size=2048
140 sample_fmt=s16
141 nb_samples=1024
142 channels=1
143 channel_layout=unknown
144 [/FRAME]
145 [PACKET]
146 codec_type=video
147 stream_index=1
148 pts=2048
149 pts_time=0.040000
150 dts=2048
151 dts_time=0.040000
152 duration=2048
153 duration_time=0.040000
154 convergence_duration=N/A
155 convergence_duration_time=N/A
156 size=230400
157 pos=265221
158 flags=K
159 [/PACKET]
160 [FRAME]
161 media_type=video
162 key_frame=1
163 pkt_pts=2048
164 pkt_pts_time=0.040000
165 pkt_dts=2048
166 pkt_dts_time=0.040000
167 best_effort_timestamp=2048
168 best_effort_timestamp_time=0.040000
169 pkt_duration=2048
170 pkt_duration_time=0.040000
171 pkt_pos=265221
172 pkt_size=230400
173 width=320
174 height=240
175 pix_fmt=rgb24
176 sample_aspect_ratio=1:1
177 pict_type=I
178 coded_picture_number=0
179 display_picture_number=0
180 interlaced_frame=0
181 top_field_first=0
182 repeat_pict=0
183 [/FRAME]
184 [PACKET]
185 codec_type=video
186 stream_index=2
187 pts=2048
188 pts_time=0.040000
189 dts=2048
190 dts_time=0.040000
191 duration=2048
192 duration_time=0.040000
193 convergence_duration=N/A
194 convergence_duration_time=N/A
195 size=30000
196 pos=495645
197 flags=K
198 [/PACKET]
199 [FRAME]
200 media_type=video
201 key_frame=1
202 pkt_pts=2048
203 pkt_pts_time=0.040000
204 pkt_dts=2048
205 pkt_dts_time=0.040000
206 best_effort_timestamp=2048
207 best_effort_timestamp_time=0.040000
208 pkt_duration=2048
209 pkt_duration_time=0.040000
210 pkt_pos=495645
211 pkt_size=30000
212 width=100
213 height=100
214 pix_fmt=rgb24
215 sample_aspect_ratio=1:1
216 pict_type=I
217 coded_picture_number=0
218 display_picture_number=0
219 interlaced_frame=0
220 top_field_first=0
221 repeat_pict=0
222 [/FRAME]
223 [PACKET]
224 codec_type=audio
225 stream_index=0
226 pts=2048
227 pts_time=0.046440
228 dts=2048
229 dts_time=0.046440
230 duration=1024
231 duration_time=0.023220
232 convergence_duration=N/A
233 convergence_duration_time=N/A
234 size=2048
235 pos=525650
236 flags=K
237 [/PACKET]
238 [FRAME]
239 media_type=audio
240 key_frame=1
241 pkt_pts=2048
242 pkt_pts_time=0.046440
243 pkt_dts=2048
244 pkt_dts_time=0.046440
245 best_effort_timestamp=2048
246 best_effort_timestamp_time=0.046440
247 pkt_duration=1024
248 pkt_duration_time=0.023220
249 pkt_pos=525650
250 pkt_size=2048
251 sample_fmt=s16
252 nb_samples=1024
253 channels=1
254 channel_layout=unknown
255 [/FRAME]
256 [PACKET]
257 codec_type=audio
258 stream_index=0
259 pts=3072
260 pts_time=0.069660
261 dts=3072
262 dts_time=0.069660
263 duration=1024
264 duration_time=0.023220
265 convergence_duration=N/A
266 convergence_duration_time=N/A
267 size=2048
268 pos=527721
269 flags=K
270 [/PACKET]
271 [FRAME]
272 media_type=audio
273 key_frame=1
274 pkt_pts=3072
275 pkt_pts_time=0.069660
276 pkt_dts=3072
277 pkt_dts_time=0.069660
278 best_effort_timestamp=3072
279 best_effort_timestamp_time=0.069660
280 pkt_duration=1024
281 pkt_duration_time=0.023220
282 pkt_pos=527721
283 pkt_size=2048
284 sample_fmt=s16
285 nb_samples=1024
286 channels=1
287 channel_layout=unknown
288 [/FRAME]
289 [PACKET]
290 codec_type=video
291 stream_index=1
292 pts=4096
293 pts_time=0.080000
294 dts=4096
295 dts_time=0.080000
296 duration=2048
297 duration_time=0.040000
298 convergence_duration=N/A
299 convergence_duration_time=N/A
300 size=230400
301 pos=529799
302 flags=K
303 [/PACKET]
304 [FRAME]
305 media_type=video
306 key_frame=1
307 pkt_pts=4096
308 pkt_pts_time=0.080000
309 pkt_dts=4096
310 pkt_dts_time=0.080000
311 best_effort_timestamp=4096
312 best_effort_timestamp_time=0.080000
313 pkt_duration=2048
314 pkt_duration_time=0.040000
315 pkt_pos=529799
316 pkt_size=230400
317 width=320
318 height=240
319 pix_fmt=rgb24
320 sample_aspect_ratio=1:1
321 pict_type=I
322 coded_picture_number=0
323 display_picture_number=0
324 interlaced_frame=0
325 top_field_first=0
326 repeat_pict=0
327 [/FRAME]
328 [PACKET]
329 codec_type=video
330 stream_index=2
331 pts=4096
332 pts_time=0.080000
333 dts=4096
334 dts_time=0.080000
335 duration=2048
336 duration_time=0.040000
337 convergence_duration=N/A
338 convergence_duration_time=N/A
339 size=30000
340 pos=760223
341 flags=K
342 [/PACKET]
343 [FRAME]
344 media_type=video
345 key_frame=1
346 pkt_pts=4096
347 pkt_pts_time=0.080000
348 pkt_dts=4096
349 pkt_dts_time=0.080000
350 best_effort_timestamp=4096
351 best_effort_timestamp_time=0.080000
352 pkt_duration=2048
353 pkt_duration_time=0.040000
354 pkt_pos=760223
355 pkt_size=30000
356 width=100
357 height=100
358 pix_fmt=rgb24
359 sample_aspect_ratio=1:1
360 pict_type=I
361 coded_picture_number=0
362 display_picture_number=0
363 interlaced_frame=0
364 top_field_first=0
365 repeat_pict=0
366 [/FRAME]
367 [PACKET]
368 codec_type=audio
369 stream_index=0
370 pts=4096
371 pts_time=0.092880
372 dts=4096
373 dts_time=0.092880
374 duration=1024
375 duration_time=0.023220
376 convergence_duration=N/A
377 convergence_duration_time=N/A
378 size=2048
379 pos=790228
380 flags=K
381 [/PACKET]
382 [FRAME]
383 media_type=audio
384 key_frame=1
385 pkt_pts=4096
386 pkt_pts_time=0.092880
387 pkt_dts=4096
388 pkt_dts_time=0.092880
389 best_effort_timestamp=4096
390 best_effort_timestamp_time=0.092880
391 pkt_duration=1024
392 pkt_duration_time=0.023220
393 pkt_pos=790228
394 pkt_size=2048
395 sample_fmt=s16
396 nb_samples=1024
397 channels=1
398 channel_layout=unknown
399 [/FRAME]
400 [PACKET]
401 codec_type=audio
402 stream_index=0
403 pts=5120
404 pts_time=0.116100
405 dts=5120
406 dts_time=0.116100
407 duration=1024
408 duration_time=0.023220
409 convergence_duration=N/A
410 convergence_duration_time=N/A
411 size=2048
412 pos=792299
413 flags=K
414 [/PACKET]
415 [FRAME]
416 media_type=audio
417 key_frame=1
418 pkt_pts=5120
419 pkt_pts_time=0.116100
420 pkt_dts=5120
421 pkt_dts_time=0.116100
422 best_effort_timestamp=5120
423 best_effort_timestamp_time=0.116100
424 pkt_duration=1024
425 pkt_duration_time=0.023220
426 pkt_pos=792299
427 pkt_size=2048
428 sample_fmt=s16
429 nb_samples=1024
430 channels=1
431 channel_layout=unknown
432 [/FRAME]
433 [PACKET]
434 codec_type=video
435 stream_index=1
436 pts=6144
437 pts_time=0.120000
438 dts=6144
439 dts_time=0.120000
440 duration=2048
441 duration_time=0.040000
442 convergence_duration=N/A
443 convergence_duration_time=N/A
444 size=230400
445 pos=794377
446 flags=K
447 [/PACKET]
448 [FRAME]
449 media_type=video
450 key_frame=1
451 pkt_pts=6144
452 pkt_pts_time=0.120000
453 pkt_dts=6144
454 pkt_dts_time=0.120000
455 best_effort_timestamp=6144
456 best_effort_timestamp_time=0.120000
457 pkt_duration=2048
458 pkt_duration_time=0.040000
459 pkt_pos=794377
460 pkt_size=230400
461 width=320
462 height=240
463 pix_fmt=rgb24
464 sample_aspect_ratio=1:1
465 pict_type=I
466 coded_picture_number=0
467 display_picture_number=0
468 interlaced_frame=0
469 top_field_first=0
470 repeat_pict=0
471 [/FRAME]
472 [PACKET]
473 codec_type=video
474 stream_index=2
475 pts=6144
476 pts_time=0.120000
477 dts=6144
478 dts_time=0.120000
479 duration=2048
480 duration_time=0.040000
481 convergence_duration=N/A
482 convergence_duration_time=N/A
483 size=30000
484 pos=1024801
485 flags=K
486 [/PACKET]
487 [FRAME]
488 media_type=video
489 key_frame=1
490 pkt_pts=6144
491 pkt_pts_time=0.120000
492 pkt_dts=6144
493 pkt_dts_time=0.120000
494 best_effort_timestamp=6144
495 best_effort_timestamp_time=0.120000
496 pkt_duration=2048
497 pkt_duration_time=0.040000
498 pkt_pos=1024801
499 pkt_size=30000
500 width=100
501 height=100
502 pix_fmt=rgb24
503 sample_aspect_ratio=1:1
504 pict_type=I
505 coded_picture_number=0
506 display_picture_number=0
507 interlaced_frame=0
508 top_field_first=0
509 repeat_pict=0
510 [/FRAME]
511 [STREAM]
512 index=0
513 codec_name=pcm_s16le
514 profile=unknown
515 codec_type=audio
516 codec_time_base=1/44100
517 codec_tag_string=PSD[16]
518 codec_tag=0x10445350
519 sample_fmt=s16
520 sample_rate=44100
521 channels=1
522 channel_layout=unknown
523 bits_per_sample=16
524 id=N/A
525 r_frame_rate=0/0
526 avg_frame_rate=0/0
527 time_base=1/44100
528 start_pts=0
529 start_time=0.000000
530 duration_ts=N/A
531 duration=N/A
532 bit_rate=705600
533 max_bit_rate=N/A
534 bits_per_raw_sample=N/A
535 nb_frames=N/A
536 nb_read_frames=6
537 nb_read_packets=6
538 DISPOSITION:default=0
539 DISPOSITION:dub=0
540 DISPOSITION:original=0
541 DISPOSITION:comment=0
542 DISPOSITION:lyrics=0
543 DISPOSITION:karaoke=0
544 DISPOSITION:forced=0
545 DISPOSITION:hearing_impaired=0
546 DISPOSITION:visual_impaired=0
547 DISPOSITION:clean_effects=0
548 DISPOSITION:attached_pic=0
549 TAG:E=mc²
550 TAG:encoder=Lavc pcm_s16le
551 [/STREAM]
552 [STREAM]
553 index=1
554 codec_name=rawvideo
555 profile=unknown
556 codec_type=video
557 codec_time_base=1/51200
558 codec_tag_string=RGB[24]
559 codec_tag=0x18424752
560 width=320
561 height=240
562 has_b_frames=0
563 sample_aspect_ratio=1:1
564 display_aspect_ratio=4:3
565 pix_fmt=rgb24
566 level=-99
567 color_range=N/A
568 color_space=unknown
569 timecode=N/A
570 id=N/A
571 r_frame_rate=25/1
572 avg_frame_rate=25/1
573 time_base=1/51200
574 start_pts=0
575 start_time=0.000000
576 duration_ts=N/A
577 duration=N/A
578 bit_rate=N/A
579 max_bit_rate=N/A
580 bits_per_raw_sample=N/A
581 nb_frames=N/A
582 nb_read_frames=4
583 nb_read_packets=4
584 DISPOSITION:default=0
585 DISPOSITION:dub=0
586 DISPOSITION:original=0
587 DISPOSITION:comment=0
588 DISPOSITION:lyrics=0
589 DISPOSITION:karaoke=0
590 DISPOSITION:forced=0
591 DISPOSITION:hearing_impaired=0
592 DISPOSITION:visual_impaired=0
593 DISPOSITION:clean_effects=0
594 DISPOSITION:attached_pic=0
595 TAG:title=foobar
596 TAG:duration_ts=field-and-tags-conflict-attempt
597 TAG:encoder=Lavc rawvideo
598 [/STREAM]
599 [STREAM]
600 index=2
601 codec_name=rawvideo
602 profile=unknown
603 codec_type=video
604 codec_time_base=1/51200
605 codec_tag_string=RGB[24]
606 codec_tag=0x18424752
607 width=100
608 height=100
609 has_b_frames=0
610 sample_aspect_ratio=1:1
611 display_aspect_ratio=1:1
612 pix_fmt=rgb24
613 level=-99
614 color_range=N/A
615 color_space=unknown
616 timecode=N/A
617 id=N/A
618 r_frame_rate=25/1
619 avg_frame_rate=25/1
620 time_base=1/51200
621 start_pts=0
622 start_time=0.000000
623 duration_ts=N/A
624 duration=N/A
625 bit_rate=N/A
626 max_bit_rate=N/A
627 bits_per_raw_sample=N/A
628 nb_frames=N/A
629 nb_read_frames=4
630 nb_read_packets=4
631 DISPOSITION:default=0
632 DISPOSITION:dub=0
633 DISPOSITION:original=0
634 DISPOSITION:comment=0
635 DISPOSITION:lyrics=0
636 DISPOSITION:karaoke=0
637 DISPOSITION:forced=0
638 DISPOSITION:hearing_impaired=0
639 DISPOSITION:visual_impaired=0
640 DISPOSITION:clean_effects=0
641 DISPOSITION:attached_pic=0
642 TAG:encoder=Lavc rawvideo
643 [/STREAM]
644 [FORMAT]
645 filename=tests/data/ffprobe-test.nut
646 nb_streams=3
647 nb_programs=0
648 format_name=nut
649 start_time=0.000000
650 duration=0.120000
651 size=1054882
652 bit_rate=70325466
653 probe_score=100
654 TAG:title=ffprobe test file
655 TAG:comment='A comment with CSV, XML & JSON special chars': <tag value="x">
656 TAG:comment2=I ♥ Üñîçød€
657 [/FORMAT]