ffprobe: Print color properties from show_frames
[ffmpeg.git] / tests / ref / fate / ffprobe_default
1 [PACKET]
2 codec_type=audio
3 stream_index=0
4 pts=0
5 pts_time=0.000000
6 dts=0
7 dts_time=0.000000
8 duration=1024
9 duration_time=0.023220
10 convergence_duration=N/A
11 convergence_duration_time=N/A
12 size=2048
13 pos=647
14 flags=K_
15 [/PACKET]
16 [FRAME]
17 media_type=audio
18 stream_index=0
19 key_frame=1
20 pkt_pts=0
21 pkt_pts_time=0.000000
22 pkt_dts=0
23 pkt_dts_time=0.000000
24 best_effort_timestamp=0
25 best_effort_timestamp_time=0.000000
26 pkt_duration=1024
27 pkt_duration_time=0.023220
28 pkt_pos=647
29 pkt_size=2048
30 sample_fmt=s16
31 nb_samples=1024
32 channels=1
33 channel_layout=unknown
34 [/FRAME]
35 [PACKET]
36 codec_type=video
37 stream_index=1
38 pts=0
39 pts_time=0.000000
40 dts=0
41 dts_time=0.000000
42 duration=2048
43 duration_time=0.040000
44 convergence_duration=N/A
45 convergence_duration_time=N/A
46 size=230400
47 pos=2722
48 flags=K_
49 [/PACKET]
50 [FRAME]
51 media_type=video
52 stream_index=1
53 key_frame=1
54 pkt_pts=0
55 pkt_pts_time=0.000000
56 pkt_dts=0
57 pkt_dts_time=0.000000
58 best_effort_timestamp=0
59 best_effort_timestamp_time=0.000000
60 pkt_duration=2048
61 pkt_duration_time=0.040000
62 pkt_pos=2722
63 pkt_size=230400
64 width=320
65 height=240
66 pix_fmt=rgb24
67 sample_aspect_ratio=1:1
68 pict_type=I
69 coded_picture_number=0
70 display_picture_number=0
71 interlaced_frame=0
72 top_field_first=0
73 repeat_pict=0
74 color_range=unknown
75 color_space=unknown
76 color_primaries=unknown
77 color_transfer=unknown
78 chroma_location=unspecified
79 [/FRAME]
80 [PACKET]
81 codec_type=video
82 stream_index=2
83 pts=0
84 pts_time=0.000000
85 dts=0
86 dts_time=0.000000
87 duration=2048
88 duration_time=0.040000
89 convergence_duration=N/A
90 convergence_duration_time=N/A
91 size=30000
92 pos=233143
93 flags=K_
94 [/PACKET]
95 [FRAME]
96 media_type=video
97 stream_index=2
98 key_frame=1
99 pkt_pts=0
100 pkt_pts_time=0.000000
101 pkt_dts=0
102 pkt_dts_time=0.000000
103 best_effort_timestamp=0
104 best_effort_timestamp_time=0.000000
105 pkt_duration=2048
106 pkt_duration_time=0.040000
107 pkt_pos=233143
108 pkt_size=30000
109 width=100
110 height=100
111 pix_fmt=rgb24
112 sample_aspect_ratio=1:1
113 pict_type=I
114 coded_picture_number=0
115 display_picture_number=0
116 interlaced_frame=0
117 top_field_first=0
118 repeat_pict=0
119 color_range=unknown
120 color_space=unknown
121 color_primaries=unknown
122 color_transfer=unknown
123 chroma_location=unspecified
124 [/FRAME]
125 [PACKET]
126 codec_type=audio
127 stream_index=0
128 pts=1024
129 pts_time=0.023220
130 dts=1024
131 dts_time=0.023220
132 duration=1024
133 duration_time=0.023220
134 convergence_duration=N/A
135 convergence_duration_time=N/A
136 size=2048
137 pos=263148
138 flags=K_
139 [/PACKET]
140 [FRAME]
141 media_type=audio
142 stream_index=0
143 key_frame=1
144 pkt_pts=1024
145 pkt_pts_time=0.023220
146 pkt_dts=1024
147 pkt_dts_time=0.023220
148 best_effort_timestamp=1024
149 best_effort_timestamp_time=0.023220
150 pkt_duration=1024
151 pkt_duration_time=0.023220
152 pkt_pos=263148
153 pkt_size=2048
154 sample_fmt=s16
155 nb_samples=1024
156 channels=1
157 channel_layout=unknown
158 [/FRAME]
159 [PACKET]
160 codec_type=video
161 stream_index=1
162 pts=2048
163 pts_time=0.040000
164 dts=2048
165 dts_time=0.040000
166 duration=2048
167 duration_time=0.040000
168 convergence_duration=N/A
169 convergence_duration_time=N/A
170 size=230400
171 pos=265226
172 flags=K_
173 [/PACKET]
174 [FRAME]
175 media_type=video
176 stream_index=1
177 key_frame=1
178 pkt_pts=2048
179 pkt_pts_time=0.040000
180 pkt_dts=2048
181 pkt_dts_time=0.040000
182 best_effort_timestamp=2048
183 best_effort_timestamp_time=0.040000
184 pkt_duration=2048
185 pkt_duration_time=0.040000
186 pkt_pos=265226
187 pkt_size=230400
188 width=320
189 height=240
190 pix_fmt=rgb24
191 sample_aspect_ratio=1:1
192 pict_type=I
193 coded_picture_number=0
194 display_picture_number=0
195 interlaced_frame=0
196 top_field_first=0
197 repeat_pict=0
198 color_range=unknown
199 color_space=unknown
200 color_primaries=unknown
201 color_transfer=unknown
202 chroma_location=unspecified
203 [/FRAME]
204 [PACKET]
205 codec_type=video
206 stream_index=2
207 pts=2048
208 pts_time=0.040000
209 dts=2048
210 dts_time=0.040000
211 duration=2048
212 duration_time=0.040000
213 convergence_duration=N/A
214 convergence_duration_time=N/A
215 size=30000
216 pos=495650
217 flags=K_
218 [/PACKET]
219 [FRAME]
220 media_type=video
221 stream_index=2
222 key_frame=1
223 pkt_pts=2048
224 pkt_pts_time=0.040000
225 pkt_dts=2048
226 pkt_dts_time=0.040000
227 best_effort_timestamp=2048
228 best_effort_timestamp_time=0.040000
229 pkt_duration=2048
230 pkt_duration_time=0.040000
231 pkt_pos=495650
232 pkt_size=30000
233 width=100
234 height=100
235 pix_fmt=rgb24
236 sample_aspect_ratio=1:1
237 pict_type=I
238 coded_picture_number=0
239 display_picture_number=0
240 interlaced_frame=0
241 top_field_first=0
242 repeat_pict=0
243 color_range=unknown
244 color_space=unknown
245 color_primaries=unknown
246 color_transfer=unknown
247 chroma_location=unspecified
248 [/FRAME]
249 [PACKET]
250 codec_type=audio
251 stream_index=0
252 pts=2048
253 pts_time=0.046440
254 dts=2048
255 dts_time=0.046440
256 duration=1024
257 duration_time=0.023220
258 convergence_duration=N/A
259 convergence_duration_time=N/A
260 size=2048
261 pos=525655
262 flags=K_
263 [/PACKET]
264 [FRAME]
265 media_type=audio
266 stream_index=0
267 key_frame=1
268 pkt_pts=2048
269 pkt_pts_time=0.046440
270 pkt_dts=2048
271 pkt_dts_time=0.046440
272 best_effort_timestamp=2048
273 best_effort_timestamp_time=0.046440
274 pkt_duration=1024
275 pkt_duration_time=0.023220
276 pkt_pos=525655
277 pkt_size=2048
278 sample_fmt=s16
279 nb_samples=1024
280 channels=1
281 channel_layout=unknown
282 [/FRAME]
283 [PACKET]
284 codec_type=audio
285 stream_index=0
286 pts=3072
287 pts_time=0.069660
288 dts=3072
289 dts_time=0.069660
290 duration=1024
291 duration_time=0.023220
292 convergence_duration=N/A
293 convergence_duration_time=N/A
294 size=2048
295 pos=527726
296 flags=K_
297 [/PACKET]
298 [FRAME]
299 media_type=audio
300 stream_index=0
301 key_frame=1
302 pkt_pts=3072
303 pkt_pts_time=0.069660
304 pkt_dts=3072
305 pkt_dts_time=0.069660
306 best_effort_timestamp=3072
307 best_effort_timestamp_time=0.069660
308 pkt_duration=1024
309 pkt_duration_time=0.023220
310 pkt_pos=527726
311 pkt_size=2048
312 sample_fmt=s16
313 nb_samples=1024
314 channels=1
315 channel_layout=unknown
316 [/FRAME]
317 [PACKET]
318 codec_type=video
319 stream_index=1
320 pts=4096
321 pts_time=0.080000
322 dts=4096
323 dts_time=0.080000
324 duration=2048
325 duration_time=0.040000
326 convergence_duration=N/A
327 convergence_duration_time=N/A
328 size=230400
329 pos=529804
330 flags=K_
331 [/PACKET]
332 [FRAME]
333 media_type=video
334 stream_index=1
335 key_frame=1
336 pkt_pts=4096
337 pkt_pts_time=0.080000
338 pkt_dts=4096
339 pkt_dts_time=0.080000
340 best_effort_timestamp=4096
341 best_effort_timestamp_time=0.080000
342 pkt_duration=2048
343 pkt_duration_time=0.040000
344 pkt_pos=529804
345 pkt_size=230400
346 width=320
347 height=240
348 pix_fmt=rgb24
349 sample_aspect_ratio=1:1
350 pict_type=I
351 coded_picture_number=0
352 display_picture_number=0
353 interlaced_frame=0
354 top_field_first=0
355 repeat_pict=0
356 color_range=unknown
357 color_space=unknown
358 color_primaries=unknown
359 color_transfer=unknown
360 chroma_location=unspecified
361 [/FRAME]
362 [PACKET]
363 codec_type=video
364 stream_index=2
365 pts=4096
366 pts_time=0.080000
367 dts=4096
368 dts_time=0.080000
369 duration=2048
370 duration_time=0.040000
371 convergence_duration=N/A
372 convergence_duration_time=N/A
373 size=30000
374 pos=760228
375 flags=K_
376 [/PACKET]
377 [FRAME]
378 media_type=video
379 stream_index=2
380 key_frame=1
381 pkt_pts=4096
382 pkt_pts_time=0.080000
383 pkt_dts=4096
384 pkt_dts_time=0.080000
385 best_effort_timestamp=4096
386 best_effort_timestamp_time=0.080000
387 pkt_duration=2048
388 pkt_duration_time=0.040000
389 pkt_pos=760228
390 pkt_size=30000
391 width=100
392 height=100
393 pix_fmt=rgb24
394 sample_aspect_ratio=1:1
395 pict_type=I
396 coded_picture_number=0
397 display_picture_number=0
398 interlaced_frame=0
399 top_field_first=0
400 repeat_pict=0
401 color_range=unknown
402 color_space=unknown
403 color_primaries=unknown
404 color_transfer=unknown
405 chroma_location=unspecified
406 [/FRAME]
407 [PACKET]
408 codec_type=audio
409 stream_index=0
410 pts=4096
411 pts_time=0.092880
412 dts=4096
413 dts_time=0.092880
414 duration=1024
415 duration_time=0.023220
416 convergence_duration=N/A
417 convergence_duration_time=N/A
418 size=2048
419 pos=790233
420 flags=K_
421 [/PACKET]
422 [FRAME]
423 media_type=audio
424 stream_index=0
425 key_frame=1
426 pkt_pts=4096
427 pkt_pts_time=0.092880
428 pkt_dts=4096
429 pkt_dts_time=0.092880
430 best_effort_timestamp=4096
431 best_effort_timestamp_time=0.092880
432 pkt_duration=1024
433 pkt_duration_time=0.023220
434 pkt_pos=790233
435 pkt_size=2048
436 sample_fmt=s16
437 nb_samples=1024
438 channels=1
439 channel_layout=unknown
440 [/FRAME]
441 [PACKET]
442 codec_type=audio
443 stream_index=0
444 pts=5120
445 pts_time=0.116100
446 dts=5120
447 dts_time=0.116100
448 duration=393
449 duration_time=0.008912
450 convergence_duration=N/A
451 convergence_duration_time=N/A
452 size=786
453 pos=792304
454 flags=K_
455 [/PACKET]
456 [FRAME]
457 media_type=audio
458 stream_index=0
459 key_frame=1
460 pkt_pts=5120
461 pkt_pts_time=0.116100
462 pkt_dts=5120
463 pkt_dts_time=0.116100
464 best_effort_timestamp=5120
465 best_effort_timestamp_time=0.116100
466 pkt_duration=393
467 pkt_duration_time=0.008912
468 pkt_pos=792304
469 pkt_size=786
470 sample_fmt=s16
471 nb_samples=393
472 channels=1
473 channel_layout=unknown
474 [/FRAME]
475 [PACKET]
476 codec_type=video
477 stream_index=1
478 pts=6144
479 pts_time=0.120000
480 dts=6144
481 dts_time=0.120000
482 duration=2048
483 duration_time=0.040000
484 convergence_duration=N/A
485 convergence_duration_time=N/A
486 size=230400
487 pos=793120
488 flags=K_
489 [/PACKET]
490 [FRAME]
491 media_type=video
492 stream_index=1
493 key_frame=1
494 pkt_pts=6144
495 pkt_pts_time=0.120000
496 pkt_dts=6144
497 pkt_dts_time=0.120000
498 best_effort_timestamp=6144
499 best_effort_timestamp_time=0.120000
500 pkt_duration=2048
501 pkt_duration_time=0.040000
502 pkt_pos=793120
503 pkt_size=230400
504 width=320
505 height=240
506 pix_fmt=rgb24
507 sample_aspect_ratio=1:1
508 pict_type=I
509 coded_picture_number=0
510 display_picture_number=0
511 interlaced_frame=0
512 top_field_first=0
513 repeat_pict=0
514 color_range=unknown
515 color_space=unknown
516 color_primaries=unknown
517 color_transfer=unknown
518 chroma_location=unspecified
519 [/FRAME]
520 [PACKET]
521 codec_type=video
522 stream_index=2
523 pts=6144
524 pts_time=0.120000
525 dts=6144
526 dts_time=0.120000
527 duration=2048
528 duration_time=0.040000
529 convergence_duration=N/A
530 convergence_duration_time=N/A
531 size=30000
532 pos=1023544
533 flags=K_
534 [/PACKET]
535 [FRAME]
536 media_type=video
537 stream_index=2
538 key_frame=1
539 pkt_pts=6144
540 pkt_pts_time=0.120000
541 pkt_dts=6144
542 pkt_dts_time=0.120000
543 best_effort_timestamp=6144
544 best_effort_timestamp_time=0.120000
545 pkt_duration=2048
546 pkt_duration_time=0.040000
547 pkt_pos=1023544
548 pkt_size=30000
549 width=100
550 height=100
551 pix_fmt=rgb24
552 sample_aspect_ratio=1:1
553 pict_type=I
554 coded_picture_number=0
555 display_picture_number=0
556 interlaced_frame=0
557 top_field_first=0
558 repeat_pict=0
559 color_range=unknown
560 color_space=unknown
561 color_primaries=unknown
562 color_transfer=unknown
563 chroma_location=unspecified
564 [/FRAME]
565 [STREAM]
566 index=0
567 codec_name=pcm_s16le
568 profile=unknown
569 codec_type=audio
570 codec_time_base=1/44100
571 codec_tag_string=PSD[16]
572 codec_tag=0x10445350
573 sample_fmt=s16
574 sample_rate=44100
575 channels=1
576 channel_layout=unknown
577 bits_per_sample=16
578 id=N/A
579 r_frame_rate=0/0
580 avg_frame_rate=0/0
581 time_base=1/44100
582 start_pts=0
583 start_time=0.000000
584 duration_ts=N/A
585 duration=N/A
586 bit_rate=705600
587 max_bit_rate=N/A
588 bits_per_raw_sample=N/A
589 nb_frames=N/A
590 nb_read_frames=6
591 nb_read_packets=6
592 DISPOSITION:default=0
593 DISPOSITION:dub=0
594 DISPOSITION:original=0
595 DISPOSITION:comment=0
596 DISPOSITION:lyrics=0
597 DISPOSITION:karaoke=0
598 DISPOSITION:forced=0
599 DISPOSITION:hearing_impaired=0
600 DISPOSITION:visual_impaired=0
601 DISPOSITION:clean_effects=0
602 DISPOSITION:attached_pic=0
603 DISPOSITION:timed_thumbnails=0
604 TAG:E=mc²
605 TAG:encoder=Lavc pcm_s16le
606 [/STREAM]
607 [STREAM]
608 index=1
609 codec_name=rawvideo
610 profile=unknown
611 codec_type=video
612 codec_time_base=1/25
613 codec_tag_string=RGB[24]
614 codec_tag=0x18424752
615 width=320
616 height=240
617 coded_width=320
618 coded_height=240
619 has_b_frames=0
620 sample_aspect_ratio=1:1
621 display_aspect_ratio=4:3
622 pix_fmt=rgb24
623 level=-99
624 color_range=N/A
625 color_space=unknown
626 color_transfer=unknown
627 color_primaries=unknown
628 chroma_location=unspecified
629 field_order=unknown
630 timecode=N/A
631 refs=1
632 id=N/A
633 r_frame_rate=25/1
634 avg_frame_rate=25/1
635 time_base=1/51200
636 start_pts=0
637 start_time=0.000000
638 duration_ts=N/A
639 duration=N/A
640 bit_rate=N/A
641 max_bit_rate=N/A
642 bits_per_raw_sample=N/A
643 nb_frames=N/A
644 nb_read_frames=4
645 nb_read_packets=4
646 DISPOSITION:default=0
647 DISPOSITION:dub=0
648 DISPOSITION:original=0
649 DISPOSITION:comment=0
650 DISPOSITION:lyrics=0
651 DISPOSITION:karaoke=0
652 DISPOSITION:forced=0
653 DISPOSITION:hearing_impaired=0
654 DISPOSITION:visual_impaired=0
655 DISPOSITION:clean_effects=0
656 DISPOSITION:attached_pic=0
657 DISPOSITION:timed_thumbnails=0
658 TAG:title=foobar
659 TAG:duration_ts=field-and-tags-conflict-attempt
660 TAG:encoder=Lavc rawvideo
661 [/STREAM]
662 [STREAM]
663 index=2
664 codec_name=rawvideo
665 profile=unknown
666 codec_type=video
667 codec_time_base=1/25
668 codec_tag_string=RGB[24]
669 codec_tag=0x18424752
670 width=100
671 height=100
672 coded_width=100
673 coded_height=100
674 has_b_frames=0
675 sample_aspect_ratio=1:1
676 display_aspect_ratio=1:1
677 pix_fmt=rgb24
678 level=-99
679 color_range=N/A
680 color_space=unknown
681 color_transfer=unknown
682 color_primaries=unknown
683 chroma_location=unspecified
684 field_order=unknown
685 timecode=N/A
686 refs=1
687 id=N/A
688 r_frame_rate=25/1
689 avg_frame_rate=25/1
690 time_base=1/51200
691 start_pts=0
692 start_time=0.000000
693 duration_ts=N/A
694 duration=N/A
695 bit_rate=N/A
696 max_bit_rate=N/A
697 bits_per_raw_sample=N/A
698 nb_frames=N/A
699 nb_read_frames=4
700 nb_read_packets=4
701 DISPOSITION:default=0
702 DISPOSITION:dub=0
703 DISPOSITION:original=0
704 DISPOSITION:comment=0
705 DISPOSITION:lyrics=0
706 DISPOSITION:karaoke=0
707 DISPOSITION:forced=0
708 DISPOSITION:hearing_impaired=0
709 DISPOSITION:visual_impaired=0
710 DISPOSITION:clean_effects=0
711 DISPOSITION:attached_pic=0
712 DISPOSITION:timed_thumbnails=0
713 TAG:encoder=Lavc rawvideo
714 [/STREAM]
715 [FORMAT]
716 filename=tests/data/ffprobe-test.nut
717 nb_streams=3
718 nb_programs=0
719 format_name=nut
720 start_time=0.000000
721 duration=0.120000
722 size=1053624
723 bit_rate=70241600
724 probe_score=100
725 TAG:title=ffprobe test file
726 TAG:comment='A comment with CSV, XML & JSON special chars': <tag value="x">
727 TAG:comment2=I ♥ Üñîçød€
728 [/FORMAT]