fate/ffprobe: add some stream metadata.
[ffmpeg.git] / tests / ref / fate / ffprobe_default
1 [PACKET]
2 codec_type=audio
3 stream_index=0
4 pts=0
5 pts_time=0.000000
6 dts=0
7 dts_time=0.000000
8 duration=1024
9 duration_time=0.023220
10 convergence_duration=N/A
11 convergence_duration_time=N/A
12 size=2048
13 pos=572
14 flags=K
15 [/PACKET]
16 [FRAME]
17 media_type=audio
18 key_frame=1
19 pkt_pts=0
20 pkt_pts_time=0.000000
21 pkt_dts=0
22 pkt_dts_time=0.000000
23 pkt_duration=1024
24 pkt_duration_time=0.023220
25 pkt_pos=572
26 sample_fmt=s16
27 nb_samples=1024
28 channels=1
29 channel_layout=unknown
30 [/FRAME]
31 [PACKET]
32 codec_type=video
33 stream_index=1
34 pts=0
35 pts_time=0.000000
36 dts=0
37 dts_time=0.000000
38 duration=2048
39 duration_time=0.040000
40 convergence_duration=N/A
41 convergence_duration_time=N/A
42 size=230400
43 pos=2647
44 flags=K
45 [/PACKET]
46 [FRAME]
47 media_type=video
48 key_frame=1
49 pkt_pts=0
50 pkt_pts_time=0.000000
51 pkt_dts=0
52 pkt_dts_time=0.000000
53 pkt_duration=2048
54 pkt_duration_time=0.040000
55 pkt_pos=2647
56 width=320
57 height=240
58 pix_fmt=rgb24
59 sample_aspect_ratio=1:1
60 pict_type=I
61 coded_picture_number=0
62 display_picture_number=0
63 interlaced_frame=0
64 top_field_first=0
65 repeat_pict=0
66 reference=0
67 [/FRAME]
68 [PACKET]
69 codec_type=video
70 stream_index=2
71 pts=0
72 pts_time=0.000000
73 dts=0
74 dts_time=0.000000
75 duration=2048
76 duration_time=0.040000
77 convergence_duration=N/A
78 convergence_duration_time=N/A
79 size=30000
80 pos=233068
81 flags=K
82 [/PACKET]
83 [FRAME]
84 media_type=video
85 key_frame=1
86 pkt_pts=0
87 pkt_pts_time=0.000000
88 pkt_dts=0
89 pkt_dts_time=0.000000
90 pkt_duration=2048
91 pkt_duration_time=0.040000
92 pkt_pos=233068
93 width=100
94 height=100
95 pix_fmt=rgb24
96 sample_aspect_ratio=1:1
97 pict_type=I
98 coded_picture_number=0
99 display_picture_number=0
100 interlaced_frame=0
101 top_field_first=0
102 repeat_pict=0
103 reference=0
104 [/FRAME]
105 [PACKET]
106 codec_type=audio
107 stream_index=0
108 pts=1024
109 pts_time=0.023220
110 dts=1024
111 dts_time=0.023220
112 duration=1024
113 duration_time=0.023220
114 convergence_duration=N/A
115 convergence_duration_time=N/A
116 size=2048
117 pos=263073
118 flags=K
119 [/PACKET]
120 [FRAME]
121 media_type=audio
122 key_frame=1
123 pkt_pts=1024
124 pkt_pts_time=0.023220
125 pkt_dts=1024
126 pkt_dts_time=0.023220
127 pkt_duration=1024
128 pkt_duration_time=0.023220
129 pkt_pos=263073
130 sample_fmt=s16
131 nb_samples=1024
132 channels=1
133 channel_layout=unknown
134 [/FRAME]
135 [PACKET]
136 codec_type=video
137 stream_index=1
138 pts=2048
139 pts_time=0.040000
140 dts=2048
141 dts_time=0.040000
142 duration=2048
143 duration_time=0.040000
144 convergence_duration=N/A
145 convergence_duration_time=N/A
146 size=230400
147 pos=265151
148 flags=K
149 [/PACKET]
150 [FRAME]
151 media_type=video
152 key_frame=1
153 pkt_pts=2048
154 pkt_pts_time=0.040000
155 pkt_dts=2048
156 pkt_dts_time=0.040000
157 pkt_duration=2048
158 pkt_duration_time=0.040000
159 pkt_pos=265151
160 width=320
161 height=240
162 pix_fmt=rgb24
163 sample_aspect_ratio=1:1
164 pict_type=I
165 coded_picture_number=0
166 display_picture_number=0
167 interlaced_frame=0
168 top_field_first=0
169 repeat_pict=0
170 reference=0
171 [/FRAME]
172 [PACKET]
173 codec_type=video
174 stream_index=2
175 pts=2048
176 pts_time=0.040000
177 dts=2048
178 dts_time=0.040000
179 duration=2048
180 duration_time=0.040000
181 convergence_duration=N/A
182 convergence_duration_time=N/A
183 size=30000
184 pos=495575
185 flags=K
186 [/PACKET]
187 [FRAME]
188 media_type=video
189 key_frame=1
190 pkt_pts=2048
191 pkt_pts_time=0.040000
192 pkt_dts=2048
193 pkt_dts_time=0.040000
194 pkt_duration=2048
195 pkt_duration_time=0.040000
196 pkt_pos=495575
197 width=100
198 height=100
199 pix_fmt=rgb24
200 sample_aspect_ratio=1:1
201 pict_type=I
202 coded_picture_number=0
203 display_picture_number=0
204 interlaced_frame=0
205 top_field_first=0
206 repeat_pict=0
207 reference=0
208 [/FRAME]
209 [PACKET]
210 codec_type=audio
211 stream_index=0
212 pts=2048
213 pts_time=0.046440
214 dts=2048
215 dts_time=0.046440
216 duration=1024
217 duration_time=0.023220
218 convergence_duration=N/A
219 convergence_duration_time=N/A
220 size=2048
221 pos=525580
222 flags=K
223 [/PACKET]
224 [FRAME]
225 media_type=audio
226 key_frame=1
227 pkt_pts=2048
228 pkt_pts_time=0.046440
229 pkt_dts=2048
230 pkt_dts_time=0.046440
231 pkt_duration=1024
232 pkt_duration_time=0.023220
233 pkt_pos=525580
234 sample_fmt=s16
235 nb_samples=1024
236 channels=1
237 channel_layout=unknown
238 [/FRAME]
239 [PACKET]
240 codec_type=audio
241 stream_index=0
242 pts=3072
243 pts_time=0.069660
244 dts=3072
245 dts_time=0.069660
246 duration=1024
247 duration_time=0.023220
248 convergence_duration=N/A
249 convergence_duration_time=N/A
250 size=2048
251 pos=527651
252 flags=K
253 [/PACKET]
254 [FRAME]
255 media_type=audio
256 key_frame=1
257 pkt_pts=3072
258 pkt_pts_time=0.069660
259 pkt_dts=3072
260 pkt_dts_time=0.069660
261 pkt_duration=1024
262 pkt_duration_time=0.023220
263 pkt_pos=527651
264 sample_fmt=s16
265 nb_samples=1024
266 channels=1
267 channel_layout=unknown
268 [/FRAME]
269 [PACKET]
270 codec_type=video
271 stream_index=1
272 pts=4096
273 pts_time=0.080000
274 dts=4096
275 dts_time=0.080000
276 duration=2048
277 duration_time=0.040000
278 convergence_duration=N/A
279 convergence_duration_time=N/A
280 size=230400
281 pos=529729
282 flags=K
283 [/PACKET]
284 [FRAME]
285 media_type=video
286 key_frame=1
287 pkt_pts=4096
288 pkt_pts_time=0.080000
289 pkt_dts=4096
290 pkt_dts_time=0.080000
291 pkt_duration=2048
292 pkt_duration_time=0.040000
293 pkt_pos=529729
294 width=320
295 height=240
296 pix_fmt=rgb24
297 sample_aspect_ratio=1:1
298 pict_type=I
299 coded_picture_number=0
300 display_picture_number=0
301 interlaced_frame=0
302 top_field_first=0
303 repeat_pict=0
304 reference=0
305 [/FRAME]
306 [PACKET]
307 codec_type=video
308 stream_index=2
309 pts=4096
310 pts_time=0.080000
311 dts=4096
312 dts_time=0.080000
313 duration=2048
314 duration_time=0.040000
315 convergence_duration=N/A
316 convergence_duration_time=N/A
317 size=30000
318 pos=760153
319 flags=K
320 [/PACKET]
321 [FRAME]
322 media_type=video
323 key_frame=1
324 pkt_pts=4096
325 pkt_pts_time=0.080000
326 pkt_dts=4096
327 pkt_dts_time=0.080000
328 pkt_duration=2048
329 pkt_duration_time=0.040000
330 pkt_pos=760153
331 width=100
332 height=100
333 pix_fmt=rgb24
334 sample_aspect_ratio=1:1
335 pict_type=I
336 coded_picture_number=0
337 display_picture_number=0
338 interlaced_frame=0
339 top_field_first=0
340 repeat_pict=0
341 reference=0
342 [/FRAME]
343 [PACKET]
344 codec_type=audio
345 stream_index=0
346 pts=4096
347 pts_time=0.092880
348 dts=4096
349 dts_time=0.092880
350 duration=1024
351 duration_time=0.023220
352 convergence_duration=N/A
353 convergence_duration_time=N/A
354 size=2048
355 pos=790158
356 flags=K
357 [/PACKET]
358 [FRAME]
359 media_type=audio
360 key_frame=1
361 pkt_pts=4096
362 pkt_pts_time=0.092880
363 pkt_dts=4096
364 pkt_dts_time=0.092880
365 pkt_duration=1024
366 pkt_duration_time=0.023220
367 pkt_pos=790158
368 sample_fmt=s16
369 nb_samples=1024
370 channels=1
371 channel_layout=unknown
372 [/FRAME]
373 [PACKET]
374 codec_type=audio
375 stream_index=0
376 pts=5120
377 pts_time=0.116100
378 dts=5120
379 dts_time=0.116100
380 duration=1024
381 duration_time=0.023220
382 convergence_duration=N/A
383 convergence_duration_time=N/A
384 size=2048
385 pos=792229
386 flags=K
387 [/PACKET]
388 [FRAME]
389 media_type=audio
390 key_frame=1
391 pkt_pts=5120
392 pkt_pts_time=0.116100
393 pkt_dts=5120
394 pkt_dts_time=0.116100
395 pkt_duration=1024
396 pkt_duration_time=0.023220
397 pkt_pos=792229
398 sample_fmt=s16
399 nb_samples=1024
400 channels=1
401 channel_layout=unknown
402 [/FRAME]
403 [PACKET]
404 codec_type=video
405 stream_index=1
406 pts=6144
407 pts_time=0.120000
408 dts=6144
409 dts_time=0.120000
410 duration=2048
411 duration_time=0.040000
412 convergence_duration=N/A
413 convergence_duration_time=N/A
414 size=230400
415 pos=794307
416 flags=K
417 [/PACKET]
418 [FRAME]
419 media_type=video
420 key_frame=1
421 pkt_pts=6144
422 pkt_pts_time=0.120000
423 pkt_dts=6144
424 pkt_dts_time=0.120000
425 pkt_duration=2048
426 pkt_duration_time=0.040000
427 pkt_pos=794307
428 width=320
429 height=240
430 pix_fmt=rgb24
431 sample_aspect_ratio=1:1
432 pict_type=I
433 coded_picture_number=0
434 display_picture_number=0
435 interlaced_frame=0
436 top_field_first=0
437 repeat_pict=0
438 reference=0
439 [/FRAME]
440 [PACKET]
441 codec_type=video
442 stream_index=2
443 pts=6144
444 pts_time=0.120000
445 dts=6144
446 dts_time=0.120000
447 duration=2048
448 duration_time=0.040000
449 convergence_duration=N/A
450 convergence_duration_time=N/A
451 size=30000
452 pos=1024731
453 flags=K
454 [/PACKET]
455 [FRAME]
456 media_type=video
457 key_frame=1
458 pkt_pts=6144
459 pkt_pts_time=0.120000
460 pkt_dts=6144
461 pkt_dts_time=0.120000
462 pkt_duration=2048
463 pkt_duration_time=0.040000
464 pkt_pos=1024731
465 width=100
466 height=100
467 pix_fmt=rgb24
468 sample_aspect_ratio=1:1
469 pict_type=I
470 coded_picture_number=0
471 display_picture_number=0
472 interlaced_frame=0
473 top_field_first=0
474 repeat_pict=0
475 reference=0
476 [/FRAME]
477 [STREAM]
478 index=0
479 codec_name=pcm_s16le
480 profile=unknown
481 codec_type=audio
482 codec_time_base=1/44100
483 codec_tag_string=[1][0][0][0]
484 codec_tag=0x0001
485 sample_fmt=s16
486 sample_rate=44100
487 channels=1
488 bits_per_sample=16
489 id=N/A
490 r_frame_rate=0/0
491 avg_frame_rate=0/0
492 time_base=1/44100
493 start_pts=0
494 start_time=0.000000
495 duration_ts=527406
496 duration=11.959320
497 bit_rate=705600
498 nb_frames=N/A
499 nb_read_frames=6
500 nb_read_packets=6
501 DISPOSITION:default=0
502 DISPOSITION:dub=0
503 DISPOSITION:original=0
504 DISPOSITION:comment=0
505 DISPOSITION:lyrics=0
506 DISPOSITION:karaoke=0
507 DISPOSITION:forced=0
508 DISPOSITION:hearing_impaired=0
509 DISPOSITION:visual_impaired=0
510 DISPOSITION:clean_effects=0
511 DISPOSITION:attached_pic=0
512 TAG:E=mc²
513 [/STREAM]
514 [STREAM]
515 index=1
516 codec_name=rawvideo
517 profile=unknown
518 codec_type=video
519 codec_time_base=1/51200
520 codec_tag_string=RGB[24]
521 codec_tag=0x18424752
522 width=320
523 height=240
524 has_b_frames=0
525 sample_aspect_ratio=1:1
526 display_aspect_ratio=4:3
527 pix_fmt=rgb24
528 level=-99
529 timecode=N/A
530 id=N/A
531 r_frame_rate=25/1
532 avg_frame_rate=25/1
533 time_base=1/51200
534 start_pts=0
535 start_time=0.000000
536 duration_ts=612317
537 duration=11.959316
538 bit_rate=N/A
539 nb_frames=N/A
540 nb_read_frames=4
541 nb_read_packets=4
542 DISPOSITION:default=0
543 DISPOSITION:dub=0
544 DISPOSITION:original=0
545 DISPOSITION:comment=0
546 DISPOSITION:lyrics=0
547 DISPOSITION:karaoke=0
548 DISPOSITION:forced=0
549 DISPOSITION:hearing_impaired=0
550 DISPOSITION:visual_impaired=0
551 DISPOSITION:clean_effects=0
552 DISPOSITION:attached_pic=0
553 TAG:title=foobar
554 TAG:duration_ts=field-and-tags-conflict-attempt
555 [/STREAM]
556 [STREAM]
557 index=2
558 codec_name=rawvideo
559 profile=unknown
560 codec_type=video
561 codec_time_base=1/51200
562 codec_tag_string=RGB[24]
563 codec_tag=0x18424752
564 width=100
565 height=100
566 has_b_frames=0
567 sample_aspect_ratio=1:1
568 display_aspect_ratio=1:1
569 pix_fmt=rgb24
570 level=-99
571 timecode=N/A
572 id=N/A
573 r_frame_rate=25/1
574 avg_frame_rate=25/1
575 time_base=1/51200
576 start_pts=0
577 start_time=0.000000
578 duration_ts=612317
579 duration=11.959316
580 bit_rate=N/A
581 nb_frames=N/A
582 nb_read_frames=4
583 nb_read_packets=4
584 DISPOSITION:default=0
585 DISPOSITION:dub=0
586 DISPOSITION:original=0
587 DISPOSITION:comment=0
588 DISPOSITION:lyrics=0
589 DISPOSITION:karaoke=0
590 DISPOSITION:forced=0
591 DISPOSITION:hearing_impaired=0
592 DISPOSITION:visual_impaired=0
593 DISPOSITION:clean_effects=0
594 DISPOSITION:attached_pic=0
595 [/STREAM]
596 [FORMAT]
597 filename=tests/data/ffprobe-test.nut
598 nb_streams=3
599 format_name=nut
600 start_time=0.000000
601 duration=11.959320
602 size=1054812
603 bit_rate=705599
604 TAG:title=ffprobe test file
605 TAG:comment='A comment with CSV, XML & JSON special chars': <tag value="x">
606 TAG:comment2=I ♥ Üñîçød€
607 [/FORMAT]