ffprobe: Print color properties from show_frames
[ffmpeg.git] / tests / ref / fate / exif-image-embedded
1 [FRAME]
2 media_type=video
3 stream_index=1
4 key_frame=1
5 pkt_pts=N/A
6 pkt_pts_time=N/A
7 pkt_dts=N/A
8 pkt_dts_time=N/A
9 best_effort_timestamp=N/A
10 best_effort_timestamp_time=N/A
11 pkt_duration=N/A
12 pkt_duration_time=N/A
13 pkt_pos=N/A
14 pkt_size=15760
15 width=263
16 height=263
17 pix_fmt=yuvj420p
18 sample_aspect_ratio=1:1
19 pict_type=I
20 coded_picture_number=0
21 display_picture_number=0
22 interlaced_frame=0
23 top_field_first=0
24 repeat_pict=0
25 color_range=pc
26 color_space=bt470bg
27 color_primaries=unknown
28 color_transfer=unknown
29 chroma_location=center
30 TAG:UserComment=AppleMark
31
32 [/FRAME]
33 [FRAME]
34 media_type=audio
35 stream_index=0
36 key_frame=1
37 pkt_pts=353600
38 pkt_pts_time=0.025057
39 pkt_dts=353600
40 pkt_dts_time=0.025057
41 best_effort_timestamp=0
42 best_effort_timestamp_time=0.000000
43 pkt_duration=15040
44 pkt_duration_time=0.001066
45 pkt_pos=16292
46 pkt_size=417
47 sample_fmt=s16p
48 nb_samples=47
49 channels=2
50 channel_layout=stereo
51 [/FRAME]
52 [FRAME]
53 media_type=audio
54 stream_index=0
55 key_frame=1
56 pkt_pts=368640
57 pkt_pts_time=0.026122
58 pkt_dts=368640
59 pkt_dts_time=0.026122
60 best_effort_timestamp=368640
61 best_effort_timestamp_time=0.026122
62 pkt_duration=368640
63 pkt_duration_time=0.026122
64 pkt_pos=16709
65 pkt_size=418
66 sample_fmt=s16p
67 nb_samples=1152
68 channels=2
69 channel_layout=stereo
70 [/FRAME]
71 [FRAME]
72 media_type=audio
73 stream_index=0
74 key_frame=1
75 pkt_pts=737280
76 pkt_pts_time=0.052245
77 pkt_dts=737280
78 pkt_dts_time=0.052245
79 best_effort_timestamp=737280
80 best_effort_timestamp_time=0.052245
81 pkt_duration=368640
82 pkt_duration_time=0.026122
83 pkt_pos=17127
84 pkt_size=418
85 sample_fmt=s16p
86 nb_samples=1152
87 channels=2
88 channel_layout=stereo
89 [/FRAME]
90 [FRAME]
91 media_type=audio
92 stream_index=0
93 key_frame=1
94 pkt_pts=1105920
95 pkt_pts_time=0.078367
96 pkt_dts=1105920
97 pkt_dts_time=0.078367
98 best_effort_timestamp=1105920
99 best_effort_timestamp_time=0.078367
100 pkt_duration=368640
101 pkt_duration_time=0.026122
102 pkt_pos=17545
103 pkt_size=418
104 sample_fmt=s16p
105 nb_samples=1152
106 channels=2
107 channel_layout=stereo
108 [/FRAME]
109 [FRAME]
110 media_type=audio
111 stream_index=0
112 key_frame=1
113 pkt_pts=1474560
114 pkt_pts_time=0.104490
115 pkt_dts=1474560
116 pkt_dts_time=0.104490
117 best_effort_timestamp=1474560
118 best_effort_timestamp_time=0.104490
119 pkt_duration=368640
120 pkt_duration_time=0.026122
121 pkt_pos=17963
122 pkt_size=418
123 sample_fmt=s16p
124 nb_samples=1152
125 channels=2
126 channel_layout=stereo
127 [/FRAME]
128 [FRAME]
129 media_type=audio
130 stream_index=0
131 key_frame=1
132 pkt_pts=1843200
133 pkt_pts_time=0.130612
134 pkt_dts=1843200
135 pkt_dts_time=0.130612
136 best_effort_timestamp=1843200
137 best_effort_timestamp_time=0.130612
138 pkt_duration=368640
139 pkt_duration_time=0.026122
140 pkt_pos=18381
141 pkt_size=418
142 sample_fmt=s16p
143 nb_samples=1152
144 channels=2
145 channel_layout=stereo
146 [/FRAME]
147 [FRAME]
148 media_type=audio
149 stream_index=0
150 key_frame=1
151 pkt_pts=2211840
152 pkt_pts_time=0.156735
153 pkt_dts=2211840
154 pkt_dts_time=0.156735
155 best_effort_timestamp=2211840
156 best_effort_timestamp_time=0.156735
157 pkt_duration=368640
158 pkt_duration_time=0.026122
159 pkt_pos=18799
160 pkt_size=418
161 sample_fmt=s16p
162 nb_samples=1152
163 channels=2
164 channel_layout=stereo
165 [/FRAME]
166 [FRAME]
167 media_type=audio
168 stream_index=0
169 key_frame=1
170 pkt_pts=2580480
171 pkt_pts_time=0.182857
172 pkt_dts=2580480
173 pkt_dts_time=0.182857
174 best_effort_timestamp=2580480
175 best_effort_timestamp_time=0.182857
176 pkt_duration=368640
177 pkt_duration_time=0.026122
178 pkt_pos=19217
179 pkt_size=418
180 sample_fmt=s16p
181 nb_samples=1152
182 channels=2
183 channel_layout=stereo
184 [/FRAME]
185 [FRAME]
186 media_type=audio
187 stream_index=0
188 key_frame=1
189 pkt_pts=2949120
190 pkt_pts_time=0.208980
191 pkt_dts=2949120
192 pkt_dts_time=0.208980
193 best_effort_timestamp=2949120
194 best_effort_timestamp_time=0.208980
195 pkt_duration=368640
196 pkt_duration_time=0.026122
197 pkt_pos=19635
198 pkt_size=418
199 sample_fmt=s16p
200 nb_samples=1152
201 channels=2
202 channel_layout=stereo
203 [/FRAME]
204 [FRAME]
205 media_type=audio
206 stream_index=0
207 key_frame=1
208 pkt_pts=3317760
209 pkt_pts_time=0.235102
210 pkt_dts=3317760
211 pkt_dts_time=0.235102
212 best_effort_timestamp=3317760
213 best_effort_timestamp_time=0.235102
214 pkt_duration=368640
215 pkt_duration_time=0.026122
216 pkt_pos=20053
217 pkt_size=418
218 sample_fmt=s16p
219 nb_samples=1152
220 channels=2
221 channel_layout=stereo
222 [/FRAME]
223 [FRAME]
224 media_type=audio
225 stream_index=0
226 key_frame=1
227 pkt_pts=3686400
228 pkt_pts_time=0.261224
229 pkt_dts=3686400
230 pkt_dts_time=0.261224
231 best_effort_timestamp=3686400
232 best_effort_timestamp_time=0.261224
233 pkt_duration=368640
234 pkt_duration_time=0.026122
235 pkt_pos=20471
236 pkt_size=418
237 sample_fmt=s16p
238 nb_samples=1152
239 channels=2
240 channel_layout=stereo
241 [/FRAME]
242 [FRAME]
243 media_type=audio
244 stream_index=0
245 key_frame=1
246 pkt_pts=4055040
247 pkt_pts_time=0.287347
248 pkt_dts=4055040
249 pkt_dts_time=0.287347
250 best_effort_timestamp=4055040
251 best_effort_timestamp_time=0.287347
252 pkt_duration=368640
253 pkt_duration_time=0.026122
254 pkt_pos=20889
255 pkt_size=418
256 sample_fmt=s16p
257 nb_samples=1152
258 channels=2
259 channel_layout=stereo
260 [/FRAME]
261 [FRAME]
262 media_type=audio
263 stream_index=0
264 key_frame=1
265 pkt_pts=4423680
266 pkt_pts_time=0.313469
267 pkt_dts=4423680
268 pkt_dts_time=0.313469
269 best_effort_timestamp=4423680
270 best_effort_timestamp_time=0.313469
271 pkt_duration=368640
272 pkt_duration_time=0.026122
273 pkt_pos=21307
274 pkt_size=418
275 sample_fmt=s16p
276 nb_samples=1152
277 channels=2
278 channel_layout=stereo
279 [/FRAME]
280 [FRAME]
281 media_type=audio
282 stream_index=0
283 key_frame=1
284 pkt_pts=4792320
285 pkt_pts_time=0.339592
286 pkt_dts=4792320
287 pkt_dts_time=0.339592
288 best_effort_timestamp=4792320
289 best_effort_timestamp_time=0.339592
290 pkt_duration=368640
291 pkt_duration_time=0.026122
292 pkt_pos=21725
293 pkt_size=418
294 sample_fmt=s16p
295 nb_samples=1152
296 channels=2
297 channel_layout=stereo
298 [/FRAME]
299 [FRAME]
300 media_type=audio
301 stream_index=0
302 key_frame=1
303 pkt_pts=5160960
304 pkt_pts_time=0.365714
305 pkt_dts=5160960
306 pkt_dts_time=0.365714
307 best_effort_timestamp=5160960
308 best_effort_timestamp_time=0.365714
309 pkt_duration=368640
310 pkt_duration_time=0.026122
311 pkt_pos=22143
312 pkt_size=418
313 sample_fmt=s16p
314 nb_samples=1152
315 channels=2
316 channel_layout=stereo
317 [/FRAME]
318 [FRAME]
319 media_type=audio
320 stream_index=0
321 key_frame=1
322 pkt_pts=5529600
323 pkt_pts_time=0.391837
324 pkt_dts=5529600
325 pkt_dts_time=0.391837
326 best_effort_timestamp=5529600
327 best_effort_timestamp_time=0.391837
328 pkt_duration=368640
329 pkt_duration_time=0.026122
330 pkt_pos=22561
331 pkt_size=418
332 sample_fmt=s16p
333 nb_samples=1152
334 channels=2
335 channel_layout=stereo
336 [/FRAME]
337 [FRAME]
338 media_type=audio
339 stream_index=0
340 key_frame=1
341 pkt_pts=5898240
342 pkt_pts_time=0.417959
343 pkt_dts=5898240
344 pkt_dts_time=0.417959
345 best_effort_timestamp=5898240
346 best_effort_timestamp_time=0.417959
347 pkt_duration=368640
348 pkt_duration_time=0.026122
349 pkt_pos=22979
350 pkt_size=418
351 sample_fmt=s16p
352 nb_samples=1152
353 channels=2
354 channel_layout=stereo
355 [/FRAME]
356 [FRAME]
357 media_type=audio
358 stream_index=0
359 key_frame=1
360 pkt_pts=6266880
361 pkt_pts_time=0.444082
362 pkt_dts=6266880
363 pkt_dts_time=0.444082
364 best_effort_timestamp=6266880
365 best_effort_timestamp_time=0.444082
366 pkt_duration=368640
367 pkt_duration_time=0.026122
368 pkt_pos=23397
369 pkt_size=418
370 sample_fmt=s16p
371 nb_samples=1152
372 channels=2
373 channel_layout=stereo
374 [/FRAME]
375 [FRAME]
376 media_type=audio
377 stream_index=0
378 key_frame=1
379 pkt_pts=6635520
380 pkt_pts_time=0.470204
381 pkt_dts=6635520
382 pkt_dts_time=0.470204
383 best_effort_timestamp=6635520
384 best_effort_timestamp_time=0.470204
385 pkt_duration=368640
386 pkt_duration_time=0.026122
387 pkt_pos=23815
388 pkt_size=418
389 sample_fmt=s16p
390 nb_samples=1152
391 channels=2
392 channel_layout=stereo
393 [/FRAME]
394 [FRAME]
395 media_type=audio
396 stream_index=0
397 key_frame=1
398 pkt_pts=7004160
399 pkt_pts_time=0.496327
400 pkt_dts=7004160
401 pkt_dts_time=0.496327
402 best_effort_timestamp=7004160
403 best_effort_timestamp_time=0.496327
404 pkt_duration=368640
405 pkt_duration_time=0.026122
406 pkt_pos=24233
407 pkt_size=418
408 sample_fmt=s16p
409 nb_samples=1152
410 channels=2
411 channel_layout=stereo
412 [/FRAME]
413 [FRAME]
414 media_type=audio
415 stream_index=0
416 key_frame=1
417 pkt_pts=7372800
418 pkt_pts_time=0.522449
419 pkt_dts=7372800
420 pkt_dts_time=0.522449
421 best_effort_timestamp=7372800
422 best_effort_timestamp_time=0.522449
423 pkt_duration=368640
424 pkt_duration_time=0.026122
425 pkt_pos=24651
426 pkt_size=418
427 sample_fmt=s16p
428 nb_samples=1152
429 channels=2
430 channel_layout=stereo
431 [/FRAME]